squallzhao
武林盟主

[2014] [欧美] [剧情] [BD-1080P] 难忘同窗情/关于亚历克斯 About.Alex.2014.1080p.BluRay.x264-PSYCHD 6.56GB

-->

帖子完整标题:难忘同窗情/关于亚历克斯 About.Alex.2014.1080p.BluRay.x264-PSYCHD 6.56GB



◎译  名 难忘同窗情/关于亚历克斯
◎片  名 About Alex
◎年  代 2014
◎产  地 美国
◎类  别 剧情
◎语  言 英语
◎上映日期 2014-08-08(美国)
◎IMDb评分 6.4/10 from 7010 users
◎IMDb链接 https://www.imdb.com/title/tt2667918/
◎豆瓣评分 6.8/10 from 333 users
◎豆瓣链接 https://movie.douban.com/subject/25853449/
◎主  演 奥布瑞·普拉扎 Aubrey Plaza
      麦克思·明格拉 Max Minghella
      简·利维 Jane Levy
      玛姬·格蕾斯 Maggie Grace
      马克思·格林菲尔德 Max Greenfield

◎标  签 美国 | 成长 | 剧情 | 青春 | 2014 | 美国电影 | 美国版“那些年” | 友情

◎简  介

  六个许久不联系的大学好友共聚一堂,计划共同度过3天小长假,让他们重逢的机遇却有些悲伤————六人中的亚历克斯在不久前自杀未遂,好友们决定照看并阻止他再次寻短。然而当有着无数共享记忆的旧日同窗相聚,早已被生活改变的他们将碰出怎样的火花?近在咫尺的旧爱又对已成人的密友们有何影响?

Video
ID : 1
Format : AVC
Format/Info : Advanced Video Codec
Format profile : [email protected]
Format settings : CABAC / 4 Ref Frames
Format settings, CABAC : Yes
Format settings, Reference frames : 4 frames
Codec ID : V_MPEG4/ISO/AVC
Duration : 1 h 38 min
Bit rate : 8 042 kb/s
Width : 1 920 pixels
Height : 1 080 pixels
Display aspect ratio : 16:9
Frame rate mode : Constant
Frame rate : 23.976 (24000/1001/189150) FPS
Color space : YUV
Chroma subsampling : 4:2:0
Bit depth : 8 bits
Scan type : Progressive
Bits/(Pixel*Frame) : 0.162
Stream size : 5.39 GiB (82%)
Writing library : x264 core 146 r2538 121396c
Encoding settings : cabac=1 / ref=4 / deblock=1:-3:-3 / analyse=0x3:0x113 / me=umh / subme=8 / psy=1 / psy_rd=1.00:0.00 / mixed_ref=1 / me_range=16 / chroma_me=1 / trellis=1 / 8x8dct=1 / cqm=0 / deadzone=21,11 / fast_pskip=1 / chroma_qp_offset=-2 / threads=24 / lookahead_threads=4 / sliced_threads=0 / nr=0 / decimate=1 / interlaced=0 / bluray_compat=0 / constrained_intra=0 / bframes=3 / b_pyramid=2 / b_adapt=2 / b_bias=0 / direct=3 / weightb=1 / open_gop=0 / weightp=2 / keyint=240 / keyint_min=24 / scenecut=40 / intra_refresh=0 / rc_lookahead=50 / rc=2pass / mbtree=1 / bitrate=8042 / ratetol=1.0 / qcomp=0.60 / qpmin=0 / qpmax=69 / qpstep=4 / cplxblur=20.0 / qblur=0.5 / ip_ratio=1.40 / aq=1:1.00
Language : English
Default : Yes
Forced : No

Audio
ID : 2
Format : DTS
Format/Info : Digital Theater Systems
Codec ID : A_DTS
Duration : 1 h 38 min
Bit rate mode : Constant
Bit rate : 1 509 kb/s
Channel(s) : 6 channels
ChannelLayout_Original : C L R Ls Rs LFE
Sampling rate : 48.0 kHz
Frame rate : 93.750 FPS (512 SPF)
Bit depth : 24 bits
Compression mode : Lossy
Stream size : 1.04 GiB (16%)
Language : English
Default : Yes
Forced : No

Text #1
ID : 3
Format : UTF-8
Codec ID : S_TEXT/UTF8
Codec ID/Info : UTF-8 Plain Text
Language : English
Default : No
Forced : No

Text #2
ID : 4
Format : UTF-8
Codec ID : S_TEXT/UTF8
Codec ID/Info : UTF-8 Plain Text
Title : SDH
Language : English
Default : No
Forced : No

Menu
00:00:00.000 : en:00:00:00.000
00:05:58.149 : en:00:05:58.149
00:10:58.908 : en:00:10:58.908
00:17:08.778 : en:00:17:08.778
00:23:09.513 : en:00:23:09.513
00:28:22.534 : en:00:28:22.534
00:32:38.582 : en:00:32:38.582
00:41:51.509 : en:00:41:51.509
00:49:26.964 : en:00:49:26.964
00:53:07.059 : en:00:53:07.059
00:57:58.517 : en:00:57:58.517
01:05:06.736 : en:01:05:06.736
01:11:29.994 : en:01:11:29.994
01:16:19.200 : en:01:16:19.200
01:24:03.205 : en:01:24:03.205
01:33:15.673 : en:01:33:15.673





1 个附件 售价 大小 下载 时间

About.Alex.2014.1080p.BluRay.x264-PSYCHD.zip 0 金币 33.43K 126 次 2月前

#1楼
发帖时间:2020-11-17 09:27:45   |   回复数:0
游客组