travismk
一代宗师

[2013] [欧美] [喜剧] [4K-原盘] 疯狂原始人/克鲁德一家 The.Croods.2013.2160p.BluRay.REMUX.HEVC.DTS-X.7.1-FGT 68.43GB

-->

帖子完整标题:疯狂原始人/克鲁德一家 The.Croods.2013.2160p.BluRay.REMUX.HEVC.DTS-X.7.1-FGT 68.43GB



◎译  名 疯狂原始人/克鲁德一家/古鲁家族(港/台)/疯狂家族
◎片  名 The Croods
◎年  代 2013
◎产  地 美国
◎类  别 喜剧 / 动画 / 冒险
◎语  言 英语
◎上映日期 2013-02-15(柏林电影节) / 2013-03-22(美国) / 2013-04-20(中国大陆)
◎IMDb评分 7.2/10 from 188380 users
◎IMDb链接 https://www.imdb.com/title/tt0481499/
◎豆瓣评分 8.7/10 from 653611 users
◎豆瓣链接 https://movie.douban.com/subject/1907966/
◎片  长 98分钟
◎导  演 柯克·德·米科 Kirk De Micco / 克里斯·桑德斯 Chris Sanders
◎编  剧 克里斯·桑德斯 Chris Sanders / 柯克·德·米科 Kirk De Micco / 约翰·克立斯 John Cleese
◎主  演 尼古拉斯·凯奇 Nicolas Cage
      艾玛·斯通 Emma Stone
      瑞恩·雷诺兹 Ryan Reynolds
      凯瑟琳·基纳 Catherine Keener
      克萝丽丝·利奇曼 Cloris Leachman
      克拉克·杜克 Clark Duke
      克里斯·桑德斯 Chris Sanders
      兰迪·汤姆 Randy Thom
      梁家辉 Tony Leung
      范晓萱 Mavis Fan

◎标  签 动画 | 梦工厂 | 美国 | 喜剧 | 温情 | 搞笑 | 冒险 | 励志

◎简  介

  原始人咕噜一家六口在老爸Grug(尼古拉斯·凯奇 Nicolas Cage 配音)的庇护下生活。每天抢夺鸵鸟蛋为食,躲避野兽的追击,每晚听老爸叙述同一个故事,在山洞里过着一成不变的生活。大女儿Eep(艾玛·斯通 Emma Stone 配音)是一个和老爸性格截然相反的充满好奇心的女孩,她不满足一辈子留在这个小山洞里,一心想要追逐山洞外面的新奇世界。
  
  没想到世界末日突然降临,山洞被毁,一家人被迫离开家园,展开一场全新的旅程。离开了居住了“一辈子”的山洞,展现在他们眼前的是一个崭新绚丽却又充满危险的新世界,到处都是食人的花草和叫不出名字的奇异鸟兽,一家人遇到了全所未有的危机。在旅途中,他们还遇到了游牧部落族人Guy(瑞恩·雷诺兹 Ryan Reynolds 配音),他有着超凡的创造力和革新思想,帮助咕噜一家躲过了重重困难,途中他还发明了很多“高科技”产品,并让他们知道了原来生活需要“用脑子”,走路需要“鞋子”等等。一行人在影片中展开了一场闹腾而又惊险的旅程。

◎获奖情况

  第86届奥斯卡金像奖 ?(2014)
  最佳动画长片(提名) 克里斯·桑德斯?/?柯克·德·米科?/?克里斯汀·贝尔森
  
  第71届金球奖 ?(2014)
  电影类最佳动画长片(提名)
  
  第41届动画安妮奖 ?(2014)
  最佳动画长片(提名)
  最佳导演(提名) 克里斯·桑德斯?/?柯克·德·米科
  最佳配乐(提名) 亚伦·史维斯查
  最佳剪辑(提名)
  最佳分镜(提名)
  最佳艺术指导(提名)
  最佳动画角色
  最佳角色设计
  最佳动画效果
  
  第25届美国制片人工会奖 ?(2014)
  最佳动画片制片人奖(提名) 克里斯汀·贝尔森?/?简·哈特韦尔
  
  第61届美国音效剪辑协会奖 ?(2014)
  金卷轴奖最佳动画片音效剪辑(提名) 帕斯卡·加努?/?苏·福克斯?/?乔纳森·纳尔?/?布莱恩·查姆尼?/?麦克·史密斯?/?J·R·格鲁布斯?/?兰迪·汤姆?/?阿尔·尼尔森?/?丹尼·索尔普?/?贾娜·万斯
  
  第12届美国视觉效果协会奖 ?(2014)
  最佳动画电影视觉效果(提名) 克里斯·桑德斯?/?简·哈特韦尔?/?柯克·德·米科
  最佳动画电影CG动画角色(提名)
  最佳动画电影CG背景(提名)
  最佳动画电影模拟动画效果(提名)
  
  第50届美国声音效果协会奖 ?(2014)
  动画电影最佳音效(提名) 兰迪·汤姆?/?丹尼斯·S·桑兹?/?加里·利佐
  
  第19届美国评论家选择电影奖 ?(2014)
  最佳动画片(提名)
  
  第18届金卫星奖 ?(2014)
  电影部门最佳动画片(提名)
  电影部门最佳视觉效果(提名) MarkusManninen?/?MattBaer
  
  第12届华盛顿影评人协会奖 ?(2013)
  最佳动画片(提名)
  
  第18届圣地亚哥影评人协会奖 ?(2013)
  最佳动画片(提名)
  
  第4届豆瓣电影鑫像奖 ?(2014)
  鑫豆单元最佳影片(外语)
  鑫豆单元最佳动画长片

Video
ID : 1
ID in the original source medium : 4113 (0x1011)
Format : HEVC
Format/Info : High Efficiency Video Coding
Format profile : Main [email protected]@High
HDR format : SMPTE ST 2086, HDR10 compatible
Codec ID : V_MPEGH/ISO/HEVC
Duration : 1 h 38 min
Bit rate : 92.9 Mb/s
Width : 3 840 pixels
Height : 2 160 pixels
Display aspect ratio : 16:9
Frame rate mode : Constant
Frame rate : 23.976 (24000/1001/189150) FPS
Color space : YUV
Chroma subsampling : 4:2:0 (Type 2)
Bit depth : 10 bits
Bits/(Pixel*Frame) : 0.467
Stream size : 64.0 GiB (94%)
Title : The.Croods.2013.2160p.BluRay.REMUX.HEVC.DTS-X.7.1-FGT
Writing library : ATEME Titan File 3.9.6 (4.9.6.2)
Language : English
Default : No
Forced : No
Color range : Limited
Color primaries : BT.2020
Transfer characteristics : PQ
Matrix coefficients : BT.2020 non-constant
Mastering display color primaries : Display P3
Mastering display luminance : min: 0.0050 cd/m2, max: 1000 cd/m2
Maximum Content Light Level : 941 cd/m2
Maximum Frame-Average Light Level : 177 cd/m2
Original source medium : Blu-ray

Audio #1
ID : 2
ID in the original source medium : 4352 (0x1100)
Format : DTS XLL X
Format/Info : Digital Theater Systems
Commercial name : DTS-HD Master Audio
Codec ID : A_DTS
Duration : 1 h 38 min
Bit rate mode : Variable
Bit rate : 3 579 kb/s
Channel(s) : 8 channels
Channel(s)_Original : Object Based
ChannelLayout_Original : Object Based
Sampling rate : 48.0 kHz
Frame rate : 93.750 FPS (512 SPF)
Bit depth : 24 bits
Stream size : 2.46 GiB (4%)
Title : The.Croods.2013.2160p.BluRay.REMUX.HEVC.DTS-X.7.1-FGT
Language : English
Default : Yes
Forced : No
Original source medium : Blu-ray

Audio #2
ID : 3
ID in the original source medium : 4353 (0x1101)
Format : DTS XBR
Format/Info : Digital Theater Systems
Commercial name : DTS-HD High Resolution Audio
Codec ID : A_DTS
Duration : 1 h 38 min
Bit rate mode : Constant
Bit rate : 2 046 kb/s
Channel(s) : 8 channels
Channel layout : C L R LFE Lb Rb Lss Rss
Sampling rate : 48.0 kHz
Frame rate : 93.750 FPS (512 SPF)
Bit depth : 24 bits
Compression mode : Lossy
Stream size : 1.41 GiB (2%)
Title : The.Croods.2013.2160p.BluRay.REMUX.HEVC.DTS-X.7.1-FGT
Language : Spanish
Default : No
Forced : No
Original source medium : Blu-ray

Audio #3
ID : 4
ID in the original source medium : 4354 (0x1102)
Format : DTS
Format/Info : Digital Theater Systems
Codec ID : A_DTS
Duration : 1 h 38 min
Bit rate mode : Constant
Bit rate : 768 kb/s
Channel(s) : 6 channels
Channel layout : C L R Ls Rs LFE
Sampling rate : 48.0 kHz
Frame rate : 93.750 FPS (512 SPF)
Bit depth : 24 bits
Compression mode : Lossy
Stream size : 542 MiB (1%)
Title : The.Croods.2013.2160p.BluRay.REMUX.HEVC.DTS-X.7.1-FGT
Language : French
Default : No
Forced : No
Original source medium : Blu-ray

Text #1
ID : 5
Format : UTF-8
Codec ID : S_TEXT/UTF8
Codec ID/Info : UTF-8 Plain Text
Duration : 1 h 28 min
Bit rate : 38 b/s
Count of elements : 1015
Stream size : 25.2 KiB (0%)
Title : English-SRT
Language : English
Default : Yes
Forced : No

Text #2
ID : 6
ID in the original source medium : 4768 (0x12A0)
Format : PGS
Muxing mode : zlib
Codec ID : S_HDMV/PGS
Codec ID/Info : Picture based subtitle format used on BDs/HD-DVDs
Duration : 1 h 38 min
Bit rate : 35.3 kb/s
Count of elements : 3338
Stream size : 24.8 MiB (0%)
Title : English-PGS
Language : English
Default : No
Forced : No
Original source medium : Blu-ray

Text #3
ID : 7
ID in the original source medium : 4769 (0x12A1)
Format : PGS
Muxing mode : zlib
Codec ID : S_HDMV/PGS
Codec ID/Info : Picture based subtitle format used on BDs/HD-DVDs
Duration : 1 h 37 min
Bit rate : 23.1 kb/s
Count of elements : 1928
Stream size : 16.1 MiB (0%)
Title : Spanish-PGS
Language : Spanish
Default : No
Forced : No
Original source medium : Blu-ray

Text #4
ID : 8
ID in the original source medium : 4770 (0x12A2)
Format : PGS
Muxing mode : zlib
Codec ID : S_HDMV/PGS
Codec ID/Info : Picture based subtitle format used on BDs/HD-DVDs
Duration : 1 h 37 min
Bit rate : 25.6 kb/s
Count of elements : 2546
Stream size : 17.9 MiB (0%)
Title : French-PGS
Language : French
Default : No
Forced : No
Original source medium : Blu-ray

Text #5
ID : 9
ID in the original source medium : 4771 (0x12A3)
Format : PGS
Muxing mode : zlib
Codec ID : S_HDMV/PGS
Codec ID/Info : Picture based subtitle format used on BDs/HD-DVDs
Duration : 1 s 772 ms
Bit rate : 7 855 b/s
Count of elements : 2
Stream size : 1.70 KiB (0%)
Title : Spanish-FORCED-PGS
Language : Spanish
Default : No
Forced : No
Original source medium : Blu-ray

Text #6
ID : 10
ID in the original source medium : 4772 (0x12A4)
Format : PGS
Muxing mode : zlib
Codec ID : S_HDMV/PGS
Codec ID/Info : Picture based subtitle format used on BDs/HD-DVDs
Duration : 1 h 33 min
Bit rate : 57 b/s
Count of elements : 8
Stream size : 39.5 KiB (0%)
Title : French-FORCED-PGS
Language : French
Default : No
Forced : No
Original source medium : Blu-ray

Menu
00:00:00.000 : en:Chapter 01
00:02:36.656 : en:Chapter 02
00:04:53.418 : en:Chapter 03
00:09:02.917 : en:Chapter 04
00:12:16.026 : en:Chapter 05
00:14:06.470 : en:Chapter 06
00:18:34.696 : en:Chapter 07
00:21:58.650 : en:Chapter 08
00:23:26.196 : en:Chapter 09
00:26:51.443 : en:Chapter 10
00:28:38.800 : en:Chapter 11
00:30:27.325 : en:Chapter 12
00:32:50.009 : en:Chapter 13
00:36:05.037 : en:Chapter 14
00:38:35.104 : en:Chapter 15
00:41:36.202 : en:Chapter 16
00:44:40.511 : en:Chapter 17
00:48:04.298 : en:Chapter 18
00:52:12.629 : en:Chapter 19
00:55:19.149 : en:Chapter 20
01:00:16.446 : en:Chapter 21
01:03:59.627 : en:Chapter 22
01:05:50.404 : en:Chapter 23
01:08:45.704 : en:Chapter 24
01:10:48.827 : en:Chapter 25
01:12:38.645 : en:Chapter 26
01:14:03.313 : en:Chapter 27
01:19:50.243 : en:Chapter 28
01:23:11.528 : en:Chapter 29
01:25:18.404 : en:Chapter 30
01:28:05.989 : en:Chapter 31
01:30:03.731 : en:Chapter 32





1 个附件 售价 大小 下载 时间

The.Croods.2013.2160p.BluRay.REMUX.HEVC.DTS-X.7.1-FGT.zip 0 金币 171.77K 532 次 2月前

#1楼
发帖时间:2020-11-16 10:11:56   |   回复数:0
游客组