travismk
一代宗师

[2014] [其他] [喜剧] [WEB-1080P] 南風 Southern.Wind.2014.JAPANESE.1080p.AMZN.WEBRip.DDP2.0.x264-HONEYG 7.02GB

-->

帖子完整标题:南風 Southern.Wind.2014.JAPANESE.1080p.AMZN.WEBRip.DDP2.0.x264-HONEYG 7.02GB



◎译  名 南风
◎片  名 南風
◎年  代 2014
◎产  地 中国台湾,日本
◎类  别 喜剧
◎语  言 日语,汉语普通话
◎上映日期 2014-07-12(日本) / 2015-09-18(中国台湾)
◎IMDb评分 5.8/10 from 50 users
◎IMDb链接 https://www.imdb.com/title/tt3376810/
◎豆瓣评分 /10 from 0 users
◎豆瓣链接 https://movie.douban.com/subject/25850293/
◎片  长 93分钟
◎导  演 萩生田宏治 Koji Hagiuda
◎编  剧 荻田美加 Mika Ogita
◎主  演 黑川芽以 Mei Kurokawa
      纪培慧 Teresa Daley
      黄河 River Huang
      郭智博 Tomohiro Kaku
      王奕瑾 Yijin Wang
      朱国宏

◎标  签 日本电影 | 日本 | 台湾 | 2014 | 台湾电影 | 日台合拍 | 黄河 | 纪培慧

◎简  介

  日本与台湾合作的合作青春公路影片《南风》,以自行车旅行为背景,由黑川芽以、纪培慧、黄河、郭智博等担纲演出。内容描述来自日本的风间蓝子(黑川芽以饰)与台湾少女童童(纪培慧饰)共同展开的单车之旅,以及在路上发生的点点滴滴故事。

Video
ID : 1
Format : AVC
Format/Info : Advanced Video Codec
Format profile : [email protected]
Format settings : CABAC / 4 Ref Frames
Format settings, CABAC : Yes
Format settings, Reference frames : 4 frames
Codec ID : V_MPEG4/ISO/AVC
Duration : 1 h 35 min
Bit rate : 10.3 Mb/s
Width : 1 920 pixels
Height : 1 080 pixels
Display aspect ratio : 16:9
Frame rate mode : Constant
Frame rate : 23.976 (24000/1001/189150) FPS
Color space : YUV
Chroma subsampling : 4:2:0
Bit depth : 8 bits
Scan type : Progressive
Bits/(Pixel*Frame) : 0.208
Stream size : 6.87 GiB (98%)
Default : Yes
Forced : No
Color range : Limited
Color primaries : BT.709
Transfer characteristics : BT.709
Matrix coefficients : BT.709

Audio
ID : 2
Format : E-AC-3
Format/Info : Enhanced AC-3
Commercial name : Dolby Digital Plus
Codec ID : A_EAC3
Duration : 1 h 35 min
Bit rate mode : Constant
Bit rate : 224 kb/s
Channel(s) : 2 channels
Channel layout : L R
Sampling rate : 48.0 kHz
Frame rate : 31.250 FPS (1536 SPF)
Compression mode : Lossy
Stream size : 153 MiB (2%)
Language: Japanese
Service kind : Complete Main
Default : Yes
Forced : No

Text
ID : 3
Format : UTF-8
Codec ID : S_TEXT/UTF8
Codec ID/Info : UTF-8 Plain Text
Duration : 1 h 34 min
Bit rate : 30 b/s
Count of elements : 912
Stream size : 21.1 KiB (0%)
Title : SDH
Language : English
Default : No
Forced : No





1 个附件 售价 大小 下载 时间

Southern.Wind.2014.JAPANESE.1080p.AMZN.WEBRip.DDP2.0.x264-HONEYG.zip 0 金币 35.80K 329 次 2月前

#1楼
发帖时间:2020-11-15 15:13:28   |   回复数:0
游客组