travismk
一代宗师

[2014] [其他] [剧情] [WEB-1080P] 沉默的眼睛 The.Eye.of.Silence.2016.CHINESE.1080p.AMZN.WEBRip.DDP2.0.x264-HONEYG 2.55G

-->

帖子完整标题:沉默的眼睛 The.Eye.of.Silence.2016.CHINESE.1080p.AMZN.WEBRip.DDP2.0.x264-HONEYG 2.55GB



◎译  名 沉默的眼睛
◎片  名 The Eye of Silence
◎年  代 2014
◎产  地 法国,中国大陆
◎类  别 剧情 / 惊悚 / 奇幻
◎语  言 汉语普通话
◎上映日期 
◎IMDb评分 6.1/10 from 49 users
◎IMDb链接 https://www.imdb.com/title/tt3419880/
◎豆瓣评分 /10 from 0 users
◎豆瓣链接 https://movie.douban.com/subject/26776591/
◎片  长 95分钟
◎编  剧 王欣雨 Xin Wang
◎主  演 王欣雨 Xin Wang

◎标  签 剧情 | 都市 | 惊悚 | WEB | 2016

◎简  介

  Being able to see in the dark is a bless, but in Beijing, it's a curse....

Video
ID : 1
Format : AVC
Format/Info : Advanced Video Codec
Format profile : [email protected]
Format settings : CABAC / 4 Ref Frames
Format settings, CABAC : Yes
Format settings, Reference frames : 4 frames
Codec ID : V_MPEG4/ISO/AVC
Duration : 1 h 32 min
Bit rate : 3 740 kb/s
Width : 1 920 pixels
Height : 800 pixels
Display aspect ratio : 2.40:1
Frame rate mode : Constant
Frame rate : 24.000 FPS
Color space : YUV
Chroma subsampling : 4:2:0
Bit depth : 8 bits
Scan type : Progressive
Bits/(Pixel*Frame) : 0.101
Stream size : 2.41 GiB (94%)
Default : Yes
Forced : No
Color range : Limited
Color primaries : BT.709
Transfer characteristics : BT.709
Matrix coefficients : BT.709

Audio
ID : 2
Format : E-AC-3
Format/Info : Enhanced AC-3
Commercial name : Dolby Digital Plus
Codec ID : A_EAC3
Duration : 1 h 32 min
Bit rate mode : Constant
Bit rate : 224 kb/s
Channel(s) : 2 channels
Channel layout : L R
Sampling rate : 48.0 kHz
Frame rate : 31.250 FPS (1536 SPF)
Compression mode : Lossy
Language: Chinese
Stream size : 148 MiB (6%)
Service kind : Complete Main
Default : Yes
Forced : No

Text
ID : 3
Format : UTF-8
Codec ID : S_TEXT/UTF8
Codec ID/Info : UTF-8 Plain Text
Duration : 1 h 27 min
Bit rate : 30 b/s
Count of elements : 919
Stream size : 19.4 KiB (0%)
Title : SDH
Language : English
Default : No
Forced : No





1 个附件 售价 大小 下载 时间

The.Eye.of.Silence.2016.CHINESE.1080p.AMZN.WEBRip.DDP2.0.x264-HONEYG.zip 0 金币 26.26K 371 次 2月前

#1楼
发帖时间:2020-11-14 21:44:50   |   回复数:0
游客组