travismk
一代宗师

[2014] [欧美] [剧情] [WEB-1080P] 上周末/上个周末 Last.Weekend.2014.1080p.AMZN.WEBRip.DDP5.1.x264-NTb 6.58GB

-->

帖子完整标题:上周末/上个周末 Last.Weekend.2014.1080p.AMZN.WEBRip.DDP5.1.x264-NTb 6.58GB



◎译  名 上周末/上个周末
◎片  名 Last Weekend
◎年  代 2014
◎产  地 美国
◎类  别 剧情 / 同性 / 家庭
◎语  言 英语
◎上映日期 2014-05-02
◎IMDb评分 5.5/10 from 916 users
◎IMDb链接 https://www.imdb.com/title/tt2435458/
◎豆瓣评分 6.5/10 from 410 users
◎豆瓣链接 https://movie.douban.com/subject/25887018/
◎片  长 94分钟
◎导  演 汤姆·杜比 Tom Dolby / Tom Williams
◎编  剧 汤姆·杜比 Tom Dolby
◎主  演 派翠西娅·克拉克森 Patricia Clarkson
      扎克瑞·布斯 Zachary Booth
      约瑟夫·克罗斯 Joseph Cross
      德文·格拉耶 Devon Graye
      克里斯·马尔基 Chris Mulkey
      艾莉克希娅·拉斯姆森 Alexia Rasmussen
      弗兰·克朗茨 Fran Kranz

◎标  签 美国 | 家庭 | 剧情 | 同性 | 2014 | 同志 | LGBT | 亲情

◎简  介

  西莉亚 (Patricia Clarkson 饰) 感觉自己人生处在了一个十字路口上。她和丈夫已经成功跻身美国富人阶层,在加州塔霍湖边有一栋自己的别墅,一对儿子也已长大成人。就在这个劳工节周末,大儿子西奥(Zachary Booth 饰)决定带男友到别墅度假,二儿子罗杰(Joseph Cross 饰)也带着秘密回家。被亲朋好友包围的西莉亚始终觉得生活缺少了什么,直到静谧湖水旁发生的意外惊醒了她。她需要的是往前走......

Video
ID : 1
Format : AVC
Format/Info : Advanced Video Codec
Format profile : [email protected]
Format settings : CABAC / 4 Ref Frames
Format settings, CABAC : Yes
Format settings, Reference frames : 4 frames
Codec ID : V_MPEG4/ISO/AVC
Duration : 1 h 34 min
Bit rate mode : Constant
Bit rate : 9 326 kb/s
Nominal bit rate : 10 000 kb/s
Width : 1 920 pixels
Height : 1 080 pixels
Display aspect ratio : 16:9
Frame rate mode : Constant
Frame rate : 23.976 (24000/1001/189150) FPS
Color space : YUV
Chroma subsampling : 4:2:0
Bit depth : 8 bits
Scan type : Progressive
Bits/(Pixel*Frame) : 0.188
Stream size : 6.16 GiB (94%)
Default : Yes
Forced : No
Color range : Limited
Color primaries : BT.709
Transfer characteristics : BT.709
Matrix coefficients : BT.709

Audio
ID : 2
Format : E-AC-3
Format/Info : Enhanced AC-3
Commercial name : Dolby Digital Plus
Codec ID : A_EAC3
Duration : 1 h 34 min
Bit rate mode : Constant
Bit rate : 640 kb/s
Channel(s) : 6 channels
Channel layout : L R C LFE Ls Rs
Sampling rate : 48.0 kHz
Frame rate : 31.250 FPS (1536 SPF)
Compression mode : Lossy
Stream size : 433 MiB (6%)
Language : English
Service kind : Complete Main
Default : Yes
Forced : No

Text
ID : 3
Format : UTF-8
Codec ID : S_TEXT/UTF8
Codec ID/Info : UTF-8 Plain Text
Duration : 1 h 33 min
Bit rate : 72 b/s
Count of elements : 1484
Stream size : 49.9 KiB (0%)
Title : SDH
Language : English
Default : No
Forced : No





1 个附件 售价 大小 下载 时间

Last.Weekend.2014.1080p.AMZN.WEBRip.DDP5.1.x264-NTb.zip 0 金币 33.57K 105 次 2月前

#1楼
发帖时间:2020-11-13 10:41:45   |   回复数:0
游客组