q3r3
武林盟主

[更 早] [欧美] [剧情] [BD-1080P] 哭泣的城市 Cry.of.the.City.1948.1080p.BluRay.x264-USURY 6.57GB

-->

帖子完整标题:哭泣的城市 Cry.of.the.City.1948.1080p.BluRay.x264-USURY 6.57GB



◎译  名 哭泣的城市
◎片  名 Cry of the City
◎年  代 1948
◎产  地 美国
◎类  别 剧情 / 爱情 / 犯罪 / 黑色电影
◎语  言 英语,意大利语
◎上映日期 1948-09-29
◎IMDb评分 7.2/10 from 2318 users
◎IMDb链接 https://www.imdb.com/title/tt0040257/
◎豆瓣评分 7.3/10 from 110 users
◎豆瓣链接 https://movie.douban.com/subject/1769689/
◎片  长 95 分钟
◎导  演 罗伯特·西奥德梅克 Robert Siodmak
◎编  剧 理查德·墨菲 Richard Murphy / 本·赫克特 Ben Hecht
◎主  演 维克多·迈彻 Victor Mature
      理查德·康特 Richard Conte
      弗雷德·克拉克 Fred Clark
      凯瑟琳·霍华德 Kathleen Howard
      贝里·克勒格尔 Berry Kroeger
      Joan Miller
      罗伯特·卡恩斯 Robert Karnes
      乔治·麦格瑞 George Magrill
      Tom Moore
      简·奈伊 Jane Nigh
      Roland Winters
      蒂托·沃洛 Tito Vuolo
      查尔斯·瓦根海姆 Charles Wagenheim
      June Storey
      康斯坦丁肖恩 Konstantin Shayne
      丹谢里丹 Dan Sheridan
      Harry Seymour
      Betty Garde
      Antonio Filauri
      Robert Adler
      乔治·梅尔福德 George Melford
      霍普·埃默森 Hope Emerson
      黛博拉·佩吉特 Debra Paget
      查尔斯·坦嫩 Charles Tannen
      Emil Rameau
      谢利·温特斯 Shelley Winters
      安德烈·贝兰杰 George Beranger
      Mimi Aguglia
      沃尔特·鲍德温 Walter Baldwin
      霍华德·弗里曼 Howard Freeman
      哈里·卡特 Harry Carter
      Ken Christy
      汤米·库克 Tommy Cook
      露丝·克利福德 Ruth Clifford
      戴维森·克拉克 Davison Clark
      John Cortay
      奥利弗布莱克 Oliver Blake

◎标  签 美国 | 黑色电影 | 罗伯特·西奥德梅克 | 1940s | 黑白 | 犯罪 | Film-Noir | 1948

◎简  介

  Petty crook and cop-killer Martin Rome, in bad shape from wounds in the hospital prison ward, still refuses to help slimy lawyer Niles clear his client by confessing to another crime. Police Lt. Candella must check Niles' allegation; a friend of the Rome family, he walks a tightrope between sentiment and cynicism. When Martin fears Candella will implicate his girlfriend Teena, he'll do anything to protect her. How many others will he drag down to disaster with him?

Video
ID : 1
Format : AVC
Format/Info : Advanced Video Codec
Format profile : [email protected]
Format settings : CABAC / 4 Ref Frames
Format settings, CABAC : Yes
Format settings, Reference frames : 4 frames
Codec ID : V_MPEG4/ISO/AVC
Duration : 1 h 35 min
Bit rate : 9 622 kb/s
Width : 1 488 pixels
Height : 1 080 pixels
Display aspect ratio : 1.378
Frame rate mode : Constant
Frame rate : 24.000 FPS
Color space : YUV
Chroma subsampling : 4:2:0
Bit depth : 8 bits
Scan type : Progressive
Bits/(Pixel*Frame) : 0.249
Stream size : 6.40 GiB (98%)
Writing library : x264 core 148 r2705 3f5ed56
Encoding settings : cabac=1 / ref=4 / deblock=1:0:0 / analyse=0x3:0x133 / me=umh / subme=9 / psy=1 / psy_rd=1.00:0.00 / mixed_ref=1 / me_range=16 / chroma_me=1 / trellis=1 / 8x8dct=1 / cqm=0 / deadzone=21,11 / fast_pskip=0 / chroma_qp_offset=-2 / threads=18 / lookahead_threads=1 / sliced_threads=0 / nr=0 / decimate=1 / interlaced=0 / bluray_compat=0 / constrained_intra=0 / bframes=3 / b_pyramid=2 / b_adapt=2 / b_bias=0 / direct=3 / weightb=1 / open_gop=0 / weightp=2 / keyint=250 / keyint_min=23 / scenecut=40 / intra_refresh=0 / rc_lookahead=50 / rc=2pass / mbtree=1 / bitrate=9622 / ratetol=1.0 / qcomp=0.60 / qpmin=0 / qpmax=69 / qpstep=4 / cplxblur=20.0 / qblur=0.5 / ip_ratio=1.40 / aq=1:1.00
Language : English
Default : Yes
Forced : No

Audio
ID : 2
Format : FLAC
Format/Info : Free Lossless Audio Codec
Codec ID : A_FLAC
Duration : 1 h 35 min
Bit rate mode : Variable
Bit rate : 234 kb/s
Channel(s) : 1 channel
Channel layout : C
Sampling rate : 48.0 kHz
Frame rate : 11.719 FPS (4096 SPF)
Bit depth : 16 bits
Compression mode : Lossless
Stream size : 160 MiB (2%)
Writing library : libFLAC 1.2.1 (UTC 2007-09-17)
Language : English
Default : Yes
Forced : No

Menu
00:00:00.000 : en:00:00:00.000
00:08:15.833 : en:00:08:15.833
00:17:57.167 : en:00:17:57.167
00:24:06.583 : en:00:24:06.583
00:30:27.042 : en:00:30:27.042
00:37:11.750 : en:00:37:11.750
00:46:36.542 : en:00:46:36.542
00:56:37.375 : en:00:56:37.375
01:04:52.417 : en:01:04:52.417
01:12:01.125 : en:01:12:01.125
01:18:54.125 : en:01:18:54.125
01:25:42.375 : en:01:25:42.375





1 个附件 售价 大小 下载 时间

Cry.of.the.City.1948.1080p.BluRay.x264-USURY.zip 0 金币 132.84K 70 次 3天前

#1楼
发帖时间:2020-10-18 11:57:57   |   回复数:1
liyouchai
隐世仙人♂
谢谢楼主分享资源
3天前 #2楼
游客组