squallzhao
武林盟主

[2014] [日本] [剧情] [BD-1080P] 猫侍 剧场版 Samurai.Cat.2014.JAPANESE.1080p.BluRay.x264-WiKi 10.70GB

-->

帖子完整标题:猫侍 剧场版 Samurai.Cat.2014.JAPANESE.1080p.BluRay.x264-WiKi 10.70GB



◎译  名 猫侍 剧场版/Nekozamurai/Samurai Cat
◎片  名 猫侍 劇場版
◎年  代 2014
◎产  地 日本
◎类  别 剧情 / 喜剧 / 古装
◎语  言 日语
◎上映日期 2014-03-01(日本)
◎IMDb评分 6.3/10 from 353 users
◎IMDb链接 https://www.imdb.com/title/tt3185154/
◎豆瓣评分 6.6/10 from 2795 users
◎豆瓣链接 https://movie.douban.com/subject/25723078/
◎片  长 100分钟
◎导  演 渡边武 Takeshi Watanabe / 山口义高 Yoshitaka Yamaguchi
◎编  剧 永森裕二 Y?ji Nagamori / 山口义高 Yoshitaka Yamaguchi / 城定秀夫 Hideo J?j? / 黑木久胜 Hisakatsu Kuroki
◎主  演 北村一辉 Kazuki Kitamura
      莲佛美沙子 Misako Renbutsu
      寺胁康文 Yasufumi Terawaki
      浅利阳介 Asari Yousuke
      户次重幸 Shigeyuki Totsugi
      洞口依子 Yoriko Douguchi
      温水洋一 Y?ichi Nukumizu
      津田宽治 Kanji Tsuda
      横山惠 Megumi Yokoyama
      斋藤洋介 Y?suke Sait?
      小野寺昭 Akira Onodera

◎标  签 日本 | 猫 | 喜剧 | 2014 | 武士 | 动物 | 古装 | 剧场版

◎简  介

  曾经名震加贺藩的剑术师傅的斑目久太郎(北村一辉 饰),被人称作“斑鬼”。然而他早已威风不再,为求生计而告别妻女,独自来到江户寻找新的门庭。人生最落魄的时候,斑目盘桓在江户的长屋中,考糊雨伞勉强度日。这一天,几个流氓找上门来。对方来自米泽一家,米泽一家的老大爱狗如命,三十年前曾和亲猫派的相泽一家结下梁子。如今新的奉行是亲猫派,甚至因此要和相泽结下猫亲家。为了避免被倾轧的命运,米泽一方花五两雇佣斑目杀掉对方老大的爱猫玉之丞。人穷志短,斑目结下这桩不入流的委托,当他高高举起武士之刀时,却被玉之丞超萌的大眼睛所融化……
  
  本片为同名电视剧的剧场版。

Format : Matroska
Format version : Version 2
File size : 10.6 GiB
Duration : 1h 39mn
Overall bit rate : 15.2 Mbps
Encoded date : UTC 2014-07-24 19:44:53
Writing application : mkvmerge v5.8.0 (\'No Sleep / Pillow\') built on Sep 2 2012 15:37:04
Writing library : libebml v1.2.3 + libmatroska v1.3.0
Attachment : Yes / Yes / Yes / Yes / Yes

Video
ID : 1
Format : AVC
Format/Info : Advanced Video Codec
Format profile : [email protected]
Format settings, CABAC : Yes
Format settings, ReFrames : 4 frames
Codec ID : V_MPEG4/ISO/AVC
Duration : 1h 39mn
Bit rate : 14.5 Mbps
Width : 1 920 pixels
Height : 1 080 pixels
Display aspect ratio : 16:9
Frame rate mode : Constant
Frame rate : 23.976 fps
Color space : YUV
Chroma subsampling : 4:2:0
Bit depth : 8 bits
Scan type : Progressive
Bits/(Pixel*Frame) : 0.292
Stream size : 9.94 GiB (94%)
Writing library : x264 core 136 r2348+704+51 d1baef6 tMod [[email protected] X86]
Encoding settings : cabac=1 / ref=4 / deblock=1:-3:-3 / analyse=0x3:0x133 / me=umh / subme=11 / psy=1 / fade_compensate=0.00 / psy_rd=1.05:0.10 / mixed_ref=1 / me_range=64 / chroma_me=1 / trellis=2 / 8x8dct=1 / cqm=0 / deadzone=21,11 / fast_pskip=0 / chroma_qp_offset=-3 / threads=12 / lookahead_threads=3 / sliced_threads=0 / nr=0 / decimate=0 / interlaced=0 / bluray_compat=0 / constrained_intra=0 / fgo=0 / bframes=10 / b_pyramid=2 / b_adapt=2 / b_bias=0 / direct=3 / weightb=1 / open_gop=0 / weightp=2 / keyint=250 / keyint_min=23 / scenecut=40 / intra_refresh=0 / rc_lookahead=150 / rc=2pass / mbtree=1 / bitrate=14500 / ratetol=1.0 / qcomp=0.75 / qpmin=0:0:0 / qpmax=69:69:69 / qpstep=4 / cplxblur=20.0 / qblur=0.5 / vbv_maxrate=50000 / vbv_bufsize=50000 / nal_hrd=none / ip_ratio=1.40 / aq=1:0.80 / aq-sensitivity=10.00 / aq-factor=1.00:1.00:1.00 / aq2=0 / aq3=0
Language : Japanese
Default : Yes
Forced : No

Audio
ID : 2
Format : AC-3
Format/Info : Audio Coding 3
Mode extension : CM (complete main)
Format settings, Endianness : Big
Codec ID : A_AC3
Duration : 1h 39mn
Bit rate mode : Constant
Bit rate : 640 Kbps
Channel(s) : 6 channels
Channel positions : Front: L C R, Side: L R, LFE
Sampling rate : 48.0 KHz
Bit depth : 16 bits
Compression mode : Lossy
Stream size : 457 MiB (4%)
Language : Japanese
Default : Yes
Forced : No

Text #1
ID : 3
Format : ASS
Codec ID : S_TEXT/ASS
Codec ID/Info : Advanced Sub Station Alpha
Compression mode : Lossless
Title : CHS
Language : Chinese
Default : No
Forced : No

Text #2
ID : 4
Format : ASS
Codec ID : S_TEXT/ASS
Codec ID/Info : Advanced Sub Station Alpha
Compression mode : Lossless
Title : CHT
Language : Chinese
Default : No
Forced : No

Menu
00:00:00.000 : en:00:00:00.000
00:04:33.773 : en:00:04:33.773
00:14:33.456 : en:00:14:33.456
00:22:37.314 : en:00:22:37.314
00:31:41.858 : en:00:31:41.858
00:41:00.750 : en:00:41:00.750
00:53:28.997 : en:00:53:28.997
01:08:57.258 : en:01:08:57.258
01:16:19.325 : en:01:16:19.325
01:36:14.227 : en:01:36:14.227





1 个附件 售价 大小 下载 时间

Samurai.Cat.2014.JAPANESE.1080p.BluRay.x264-WiKi.zip 0 金币 108.51K 231 次 3天前

#1楼
发帖时间:2020-10-18 11:34:54   |   回复数:0
游客组