squallzhao
武林盟主

[2014] [韩国] [喜剧] [BD-1080P] 奇怪的她 Miss.Granny.2014.KOREAN.1080p.BluRay.x264.DTS-WiKi 11.04GB

-->

帖子完整标题:奇怪的她 Miss.Granny.2014.KOREAN.1080p.BluRay.x264.DTS-WiKi 11.04GB



◎译  名 奇怪的她/Miss Granny/可疑的她/回到20岁(台)/奇怪的女人/重返20岁–泡菜篇(港)
◎片  名 ??? ??
◎年  代 2014
◎产  地 韩国
◎类  别 喜剧 / 奇幻
◎语  言 韩语
◎上映日期 2014-01-22(韩国)
◎IMDb评分 7.3/10 from 2725 users
◎IMDb链接 https://www.imdb.com/title/tt3516378/
◎豆瓣评分 8.3/10 from 161742 users
◎豆瓣链接 https://movie.douban.com/subject/24879820/
◎片  长 124分钟
◎导  演 黄东赫 Dong-hyuk Hwang
◎编  剧 申东益 Dong-ik Shin / 洪允贞 Yoon-jeong Hong / 董熹璇 Hee-seon Dong / 黄东赫 Dong-hyuk Hwang
◎主  演 沈恩京 Eun-kyung Shim
      罗文姬 Mun-hee Na
      朴仁焕 In-hwan Park
      李阵郁 Jin-wook Lee
      郑振永 Jin-yeong Jeong
      成东日 Dong-il Sung
      金秀贤 Soo-hyun Kim
      韩智恩 Han Ji Eun
      崔华静 Hwa-jeong Choi
      韩彩炅 Han Chae Kyung
      姜汉泉 Han-saem Kang
      金贤淑 Hyeon-sook Kim
      崔圭换 Kyu-hwan Choi
      河延珠 Yeon-joo Ha
      金瑟祺 Seul-gi Kim
      郑仁基 In-gi Jeong
      张光 Gwang Jang
      表艺珍 Ye-jin Pyo

◎标  签 韩国 | 喜剧 | 温情 | 返老还童 | 搞笑 | 奇幻 | 青春 | 2014

◎简  介

  经营咖啡店的坏脾气老奶奶吴末顺(罗文熙 饰)自持有一个孝顺的教授儿子(成东日 饰)而处处霸道,除了少年时期的老佣人朴老头(朴仁焕 饰)真心对她好,朋友们都讨厌她,包括她的儿媳。一次儿媳住院,全家除了孙子智河(郑真英 饰)不同意,别人都觉得该送奶奶去老人院。末顺奶奶失落之 时想去照相馆拍张遗照,没想到这一拍竟然变成了年轻的模样。年轻的末顺改名吴斗丽(沈恩敬 饰),开始了新的生活,甚至重拾了年轻时的梦想——当歌手。斗丽特立独行却受到了大家的欢迎,甚至吸引了电视台导演(李真旭 饰)的倾慕,可是她的身份却面临着被揭穿的威胁,该留在20岁享受人生,还是重回正轨面对生活,末顺做出了艰难的抉择。

◎获奖情况

  第35届韩国电影青龙奖 ?(2014)
  最佳影片(提名)
  最佳导演(提名) 黄东赫
  最佳女主角(提名) 沈恩京
  最佳剧本(提名)
  最佳配乐(提名)
  
  第50届百想艺术大赏 ?(2014)
  电影类最佳女主角 沈恩京
  电影类最佳编剧(提名) 申东益?/?洪允贞?/?董熹璇
  
  第51届韩国电影大钟奖 ?(2014)
  最佳女主角(提名) 沈恩京
  最佳剧本(提名)
  最佳音乐(提名)
  
  第1届豆瓣电影年度榜单 ?(2014)
  评分最高的韩国电影(提名)
  5月最受关注电影(提名)

Format : Matroska
Format version : Version 1
File size : 11.0 GiB
Duration : 2h 4mn
Overall bit rate : 12.6 Mbps
Encoded date : UTC 2014-07-07 12:53:42
Writing application : mkvmerge v2.2.0 (\'Turn It On Again\') built on Mar 4 2008 12:58:26
Writing library : libebml v0.7.7 + libmatroska v0.8.1

Video
ID : 1
Format : AVC
Format/Info : Advanced Video Codec
Format profile : [email protected]
Format settings, CABAC : Yes
Format settings, ReFrames : 4 frames
Codec ID : V_MPEG4/ISO/AVC
Duration : 2h 4mn
Bit rate : 11.1 Mbps
Width : 1 920 pixels
Height : 1 036 pixels
Display aspect ratio : 1.85:1
Frame rate mode : Constant
Frame rate : 23.976 fps
Color space : YUV
Chroma subsampling : 4:2:0
Bit depth : 8 bits
Scan type : Progressive
Bits/(Pixel*Frame) : 0.233
Stream size : 9.42 GiB (86%)
Writing library : x264 core 130 r2273 b3065e6
Encoding settings : cabac=1 / ref=4 / deblock=1:-3:-3 / analyse=0x3:0x133 / me=umh / subme=11 / psy=1 / psy_rd=1.05:0.05 / mixed_ref=1 / me_range=64 / chroma_me=1 / trellis=2 / 8x8dct=1 / cqm=0 / deadzone=21,11 / fast_pskip=0 / chroma_qp_offset=-3 / threads=12 / lookahead_threads=2 / sliced_threads=0 / nr=0 / decimate=1 / interlaced=0 / bluray_compat=0 / constrained_intra=0 / bframes=8 / b_pyramid=2 / b_adapt=2 / b_bias=0 / direct=3 / weightb=1 / open_gop=0 / weightp=2 / keyint=250 / keyint_min=23 / scenecut=40 / intra_refresh=0 / rc_lookahead=60 / rc=2pass / mbtree=1 / bitrate=11091 / ratetol=1.0 / qcomp=0.60 / qpmin=0 / qpmax=69 / qpstep=4 / cplxblur=20.0 / qblur=0.5 / vbv_maxrate=40000 / vbv_bufsize=30000 / nal_hrd=none / ip_ratio=1.40 / aq=1:0.80
Language : English
Default : Yes
Forced : No

Audio
ID : 2
Format : DTS
Format/Info : Digital Theater Systems
Mode : 16
Format settings, Endianness : Big
Codec ID : A_DTS
Duration : 2h 4mn
Bit rate mode : Constant
Bit rate : 1 509 Kbps
Channel(s) : 6 channels
Channel positions : Front: L C R, Side: L R, LFE
Sampling rate : 48.0 KHz
Bit depth : 24 bits
Compression mode : Lossy
Stream size : 1.32 GiB (12%)
Language : Korean
Default : Yes
Forced : No





1 个附件 售价 大小 下载 时间

Miss.Granny.2014.KOREAN.1080p.BluRay.x264.DTS-WiKi.zip 0 金币 111.97K 308 次 9天前

#1楼
发帖时间:2020-10-18 11:07:54   |   回复数:0
游客组