squallzhao
武林盟主

[2013] [其他] [剧情] [BD-1080P] 失魂 Soul.2013.CHINESE.1080p.BluRay.x264.DTS-WiKi 11.09GB

-->

帖子完整标题:失魂 Soul.2013.CHINESE.1080p.BluRay.x264.DTS-WiKi 11.09GB



◎译  名 Soul
◎片  名 失魂
◎年  代 2013
◎产  地 中国台湾
◎类  别 剧情 / 惊悚
◎语  言 汉语普通话
◎上映日期 2013-08-30(中国台湾)
◎IMDb评分 6.3/10 from 362 users
◎IMDb链接 https://www.imdb.com/title/tt3091254/
◎豆瓣评分 6.2/10 from 2580 users
◎豆瓣链接 https://movie.douban.com/subject/10793513/
◎片  长 111分钟
◎导  演 钟孟宏 Mong-Hong Chung
◎编  剧 钟孟宏 Mong-Hong Chung
◎主  演 张孝全 Joseph Chang
      王羽 Yu Wang
      戴立忍 Leon Dai
      陈湘琪 Shiang-chyi Chen
      金士杰 Shih-Chieh King
      庹宗华 Chung-Hua Tou
      梁赫群 Vincent Liang
      纳豆 Na Dow
      陈玉勋 Yu-Hsun Chen
      黄健玮 Chien-wei Huang
      吴朋奉 Pong Fong Wu

◎标  签 台湾 | 惊悚 | 2013 | 悬疑 | 犯罪 | 剧情 | 恐怖 | 鐘孟宏

◎简  介

  阿川(张孝全 饰)是一位性格十分温和的男子,某一日,正在工作的他忽然昏倒,然而经医生检查后发现身体并无异状,医生诊断阿川有可能患有精神方面的疾病。阿川回到了老家疗养,在那里生活着他的父亲王伯伯(王羽 饰)和姐姐小芸(黄湘琪 饰)。让王伯伯没有想到的是,阿川竟然杀死了小芸。
  
  王伯伯将阿川关进了小屋之中,独自处理了女儿的尸体。小芸的丈夫许久不见妻子,找上门来,就在他快要找到阿川的藏身之处时,王伯伯杀死了他。小芸和丈夫的双双失踪引起了警方的注意,两名警察锁住了王伯伯,接近了阿川所在的小屋,却反被阿川杀死。为了替儿子掩盖罪行,王伯伯顶替了全部的罪过。

◎获奖情况

  第50届台北金马影展 ?(2013)
  金马奖最佳导演(提名) 钟孟宏
  金马奖最佳男主角(提名) 王羽
  金马奖最佳摄影(提名) 钟孟宏
  金马奖最佳美术设计(提名) 赵思豪
  金马奖最佳音效 郭礼杞?/?杜笃之
  
  第15届台北电影节 ?(2013)
  台北电影奖最佳剧情长片 钟孟宏
  台北电影奖最佳男主角奖 王羽
  台北电影奖最佳摄影奖 钟孟宏
  台北电影奖最佳音乐奖 曾思铭

Format : Matroska
Format version : Version 2
File size : 11.0 GiB
Duration : 1h 51mn
Overall bit rate : 14.1 Mbps
Encoded date : UTC 2014-06-26 14:34:32
Writing application : mkvmerge v5.8.0 (\'No Sleep / Pillow\') built on Sep 2 2012 15:37:04
Writing library : libebml v1.2.3 + libmatroska v1.3.0

Video
ID : 1
Format : AVC
Format/Info : Advanced Video Codec
Format profile : [email protected]
Format settings, CABAC : Yes
Format settings, ReFrames : 5 frames
Codec ID : V_MPEG4/ISO/AVC
Duration : 1h 51mn
Bit rate : 12.6 Mbps
Width : 1 920 pixels
Height : 816 pixels
Display aspect ratio : 2.35:1
Frame rate mode : Constant
Frame rate : 24.000 fps
Color space : YUV
Chroma subsampling : 4:2:0
Bit depth : 8 bits
Scan type : Progressive
Bits/(Pixel*Frame) : 0.335
Stream size : 9.60 GiB (87%)
Writing library : x264 core 136 r2348+704+51 d1baef6 tMod [[email protected] X86_64]
Encoding settings : cabac=1 / ref=5 / deblock=1:-3:-3 / analyse=0x3:0x133 / me=umh / subme=11 / psy=1 / fade_compensate=0.00 / psy_rd=1.05:0.15 / mixed_ref=1 / me_range=64 / chroma_me=1 / trellis=2 / 8x8dct=1 / cqm=0 / deadzone=21,11 / fast_pskip=0 / chroma_qp_offset=-3 / threads=12 / lookahead_threads=2 / sliced_threads=0 / nr=0 / decimate=0 / interlaced=0 / bluray_compat=0 / constrained_intra=0 / fgo=0 / bframes=8 / b_pyramid=2 / b_adapt=2 / b_bias=0 / direct=3 / weightb=1 / open_gop=0 / weightp=2 / keyint=250 / keyint_min=24 / scenecut=40 / intra_refresh=0 / rc_lookahead=150 / rc=2pass / mbtree=1 / bitrate=12588 / ratetol=1.0 / qcomp=0.70 / qpmin=0:0:0 / qpmax=69:69:69 / qpstep=4 / cplxblur=20.0 / qblur=0.5 / vbv_maxrate=50000 / vbv_bufsize=50000 / nal_hrd=none / ip_ratio=1.40 / aq=1:0.75 / aq-sensitivity=10.00 / aq-factor=1.00:1.00:1.00 / aq2=0 / aq3=0
Language : Chinese
Default : Yes
Forced : No
Matrix coefficients : BT.709

Audio
ID : 2
Format : DTS
Format/Info : Digital Theater Systems
Mode : 16
Format settings, Endianness : Big
Codec ID : A_DTS
Duration : 1h 51mn
Bit rate mode : Constant
Bit rate : 1 509 Kbps
Channel(s) : 6 channels
Channel positions : Front: L C R, Side: L R, LFE
Sampling rate : 48.0 KHz
Bit depth : 16 bits
Compression mode : Lossy
Stream size : 1.18 GiB (11%)
Title : TW Mandarin
Language : Chinese
Default : Yes
Forced : No

Text #1
ID : 3
Format : UTF-8
Codec ID : S_TEXT/UTF8
Codec ID/Info : UTF-8 Plain Text
Title : CHS
Language : Chinese
Default : No
Forced : No

Text #2
ID : 4
Format : UTF-8
Codec ID : S_TEXT/UTF8
Codec ID/Info : UTF-8 Plain Text
Title : CHT
Language : Chinese
Default : No
Forced : No

Text #3
ID : 5
Format : UTF-8
Codec ID : S_TEXT/UTF8
Codec ID/Info : UTF-8 Plain Text
Language : English
Default : No
Forced : No

Menu
00:00:00.000 : en:00:00:00.000
00:09:15.292 : en:00:09:15.292
00:18:54.833 : en:00:18:54.833
00:26:50.417 : en:00:26:50.417
00:36:48.000 : en:00:36:48.000
00:47:23.542 : en:00:47:23.542
00:56:57.292 : en:00:56:57.292
01:06:34.792 : en:01:06:34.792
01:16:38.667 : en:01:16:38.667
01:24:52.292 : en:01:24:52.292
01:33:00.958 : en:01:33:00.958
01:42:42.542 : en:01:42:42.542





1 个附件 售价 大小 下载 时间

Soul.2013.CHINESE.1080p.BluRay.x264.DTS-WiKi.zip 0 金币 112.48K 343 次 3天前

#1楼
发帖时间:2020-10-18 11:02:17   |   回复数:0
游客组