q3r3
武林盟主

[2016] [欧美] [动作] [BD-1080P] 生化危机:终章 Resident.Evil.The.Final.Chapter.2016.1080p.BluRay.X264-AMIABLE 7.95GB

-->

帖子完整标题:生化危机:终章 Resident.Evil.The.Final.Chapter.2016.1080p.BluRay.X264-AMIABLE 7.95GB



◎译  名 生化危机:终章/Resident Evil 6/Resident Evil: Rising/恶灵古堡6:最终章(台)/生化危机:终极尸杀(港)/生化危机6
◎片  名 Resident Evil: The Final Chapter
◎年  代 2016
◎产  地 美国
◎类  别 动作 / 科幻 / 恐怖
◎语  言 英语
◎上映日期 2016-12-23(日本) / 2017-01-27(美国) / 2017-02-24(中国大陆)
◎IMDb评分 5.5/10 from 82001 users
◎IMDb链接 https://www.imdb.com/title/tt2592614/
◎豆瓣评分 6.5/10 from 209696 users
◎豆瓣链接 https://movie.douban.com/subject/20471852/
◎片  长 106分钟(美国)
◎导  演 保罗·安德森 Paul W.S. Anderson
◎编  剧 保罗·安德森 Paul W.S. Anderson
◎主  演 米拉·乔沃维奇 Milla Jovovich
      伊恩·格雷 Iain Glen
      艾丽·拉特 Ali Larter
      鲁比·罗丝 Ruby Rose
      李准基 Joon-gi Lee
      肖恩·罗伯茨 Shawn Roberts
      威廉·莱维 William Levy
      欧文·马肯 Eoin Macken
      罗拉 Rola
      艾尔·安德森 Ever Anderson
      密尔顿·施尔 Milton Schorr
      西沃恩·霍奇森 Siobhan Hodgson
      凯文·奥托 Kevin Otto
      保罗·汉普赛尔 Paul Hampshire
      弗雷泽·杰姆斯 Fraser James
      西耶娜·盖尔利 Sienna Guillory
      乔翰·厄布 Johann Urb

◎标  签 丧尸 | 科幻 | 美国 | 动作 | 惊悚 | 僵尸 | 恐怖 | 游戏改编

◎简  介

  爱丽丝(米拉·乔沃维奇 Milla Jovovich 饰)在华盛顿特区被威斯克背叛后身陷险境,人类几乎要失去最后的希望。作为唯一的幸存者,也是人类对抗僵尸大军的最后防线,爱丽丝必须回到噩梦开始的地方——浣熊市,才能完成拯救世界救赎人类的正义使命。回归故事发生的起点浣熊市,爱丽丝将和昔日的朋友一起对抗僵尸和最新变种怪物,与 保护伞公司展开了一场惊心动魄的终极决战。

◎获奖情况

  第4届豆瓣电影年度榜单 ?(2017)
  2月最受关注电影(提名)

Video
ID : 1
Format : AVC
Format/Info : Advanced Video Codec
Format profile : [email protected]
Format settings : CABAC / 5 Ref Frames
Format settings, CABAC : Yes
Format settings, Reference frames : 5 frames
Codec ID : V_MPEG4/ISO/AVC
Duration : 1 h 46 min
Bit rate : 9 150 kb/s
Width : 1 920 pixels
Height : 800 pixels
Display aspect ratio : 2.40:1
Frame rate mode : Constant
Frame rate : 23.976 (24000/1001/189150) FPS
Color space : YUV
Chroma subsampling : 4:2:0
Bit depth : 8 bits
Scan type : Progressive
Bits/(Pixel*Frame) : 0.248
Stream size : 6.66 GiB (84%)
Writing library : x264 core 148 r2744 b97ae06
Encoding settings : cabac=1 / ref=5 / deblock=1:-3:-3 / analyse=0x3:0x113 / me=umh / subme=8 / psy=1 / psy_rd=1.00:0.00 / mixed_ref=1 / me_range=32 / chroma_me=1 / trellis=1 / 8x8dct=1 / cqm=0 / deadzone=21,11 / fast_pskip=1 / chroma_qp_offset=-2 / threads=24 / lookahead_threads=4 / sliced_threads=0 / nr=0 / decimate=1 / interlaced=0 / bluray_compat=0 / constrained_intra=0 / bframes=3 / b_pyramid=2 / b_adapt=2 / b_bias=0 / direct=3 / weightb=1 / open_gop=0 / weightp=2 / keyint=240 / keyint_min=24 / scenecut=40 / intra_refresh=0 / rc_lookahead=50 / rc=2pass / mbtree=1 / bitrate=9150 / ratetol=1.0 / qcomp=0.60 / qpmin=0 / qpmax=69 / qpstep=4 / cplxblur=20.0 / qblur=0.5 / ip_ratio=1.40 / aq=3:0.80
Default : Yes
Forced : No
Statistics Tags Issue : no_variable_data 1970-01-01 00:00:00 / no_variable_data 2010-02-22 21:41:29
FromStats_BitRate : 9146515
FromStats_Duration : 01:46:40.394000000
FromStats_FrameCount : 153456
FromStats_StreamSize : 7317663164

Audio
ID : 2
Format : DTS
Format/Info : Digital Theater Systems
Codec ID : A_DTS
Duration : 1 h 46 min
Bit rate mode : Constant
Bit rate : 1 509 kb/s
Channel(s) : 6 channels
Channel layout : C L R Ls Rs LFE
Sampling rate : 48.0 kHz
Frame rate : 93.750 FPS (512 SPF)
Bit depth : 24 bits
Compression mode : Lossy
Stream size : 1.12 GiB (14%)
Language : English
Default : Yes
Forced : No
Statistics Tags Issue : no_variable_data 1970-01-01 00:00:00 / no_variable_data 2010-02-22 21:41:29
FromStats_BitRate : 1508999
FromStats_Duration : 01:46:40.395000000
FromStats_FrameCount : 600037
FromStats_StreamSize : 1207274444

Text
ID : 3
Format : UTF-8
Codec ID : S_TEXT/UTF8
Codec ID/Info : UTF-8 Plain Text
Language : English
Default : No
Forced : No
Statistics Tags Issue : no_variable_data 1970-01-01 00:00:00 / no_variable_data 2010-02-22 21:41:29
FromStats_BitRate : 31
FromStats_Duration : 01:45:16.226000000
FromStats_FrameCount : 818
FromStats_StreamSize : 24917

Menu
00:00:00.000 : en:00:00:00.000
00:05:39.673 : en:00:05:39.673
00:11:18.177 : en:00:11:18.177
00:17:00.102 : en:00:17:00.102
00:22:36.146 : en:00:22:36.146
00:27:21.932 : en:00:27:21.932
00:33:38.475 : en:00:33:38.475
00:40:47.612 : en:00:40:47.612
00:46:36.127 : en:00:46:36.127
00:53:18.779 : en:00:53:18.779
01:03:18.670 : en:01:03:18.670
01:10:47.869 : en:01:10:47.869
01:15:37.575 : en:01:15:37.575
01:22:57.806 : en:01:22:57.806
01:28:32.891 : en:01:28:32.891
01:35:07.452 : en:01:35:07.452





1 个附件 售价 大小 下载 时间

Resident.Evil.The.Final.Chapter.2016.1080p.BluRay.X264-AMIABLE.zip 0 金币 81.08K 315 次 7天前

#1楼
发帖时间:2020-09-16 22:46:15   |   回复数:2
liyouchai
隐世仙人♂
谢谢楼主分享资源
7天前 #2楼
jokingcheung
一代宗师
谢谢分享
7天前 #3楼
游客组