squallzhao
一派掌门

[更 早] [欧美] [剧情] [BD-1080P] 篮球梦 Hoop.Dreams.1994.DOCU.1080p.BluRay.x264-PSYCHD 13.12GB

-->

帖子完整标题:篮球梦 Hoop.Dreams.1994.DOCU.1080p.BluRay.x264-PSYCHD 13.12GB



◎译  名 篮球梦
◎片  名 Hoop Dreams
◎年  代 1994
◎产  地 美国
◎类  别 剧情 / 纪录片 / 运动
◎语  言 英语
◎上映日期 1994-09-12
◎IMDb评分 8.3/10 from 23824 users
◎IMDb链接 https://www.imdb.com/title/tt0110057
◎豆瓣评分 8.7/10 from 1367 users
◎豆瓣链接 https://movie.douban.com/subject/1297797/
◎片  长 170 分钟
◎导  演 斯蒂夫·詹姆斯 Steve James
◎编  剧 Frederick Marx / Steve James
◎主  演 William Gates
      Arthur Agee
      Emma Gates


◎标  签 纪录片 | 美国 | 篮球 | 篮球梦 | 体育 | 美国电影 | 1994 | SteveJames

◎简  介

  此片花费六年的时间拍摄,讲述两个来自芝加哥贫民区的黑人少年追逐篮球梦的过程。他们具有非凡的篮球才能,却只能在街头篮球赛中大展身手。直到被一名星探发现,他们的人生才似乎有了转机,但其中的一人却还是因为膝伤而毁灭了多年梦想,另一个则进了大学离梦想靠近。除了是一部成功的运动纪录片外,本片还探讨了美国根深蒂固的种族问题,向人们展示了年轻的黑人为生存而奋斗的艰苦。本片获得了包括了国际纪录片联合会大奖在内的12项大奖。

◎获奖情况

  第67届奥斯卡金像奖(1995)
  最佳剪辑(提名) Frederick Marx / 斯蒂夫·詹姆斯 / William Haugse

Video
ID : 1
Format : AVC
Format/Info : Advanced Video Codec
Format profile : [email protected]
Format settings : CABAC / 5 Ref Frames
Format settings, CABAC : Yes
Format settings, Reference frames : 5 frames
Codec ID : V_MPEG4/ISO/AVC
Duration : 2 h 52 min
Bit rate : 9 377 kb/s
Width : 1 440 pixels
Height : 1 080 pixels
Display aspect ratio : 4:3
Frame rate mode : Constant
Frame rate : 29.970 (30000/1001/189150) FPS
Color space : YUV
Chroma subsampling : 4:2:0
Bit depth : 8 bits
Scan type : Progressive
Bits/(Pixel*Frame) : 0.201
Stream size : 11.3 GiB (86%)
Writing library : x264 core 146 r2538 121396c
Encoding settings : cabac=1 / ref=5 / deblock=1:-3:-3 / analyse=0x3:0x113 / me=umh / subme=8 / psy=1 / psy_rd=1.00:0.00 / mixed_ref=1 / me_range=16 / chroma_me=1 / trellis=1 / 8x8dct=1 / cqm=0 / deadzone=21,11 / fast_pskip=1 / chroma_qp_offset=-2 / threads=18 / lookahead_threads=3 / sliced_threads=0 / nr=0 / decimate=1 / interlaced=0 / bluray_compat=0 / constrained_intra=0 / bframes=3 / b_pyramid=2 / b_adapt=2 / b_bias=0 / direct=3 / weightb=1 / open_gop=0 / weightp=2 / keyint=300 / keyint_min=30 / scenecut=40 / intra_refresh=0 / rc_lookahead=50 / rc=2pass / mbtree=1 / bitrate=9377 / ratetol=1.0 / qcomp=0.60 / qpmin=0 / qpmax=69 / qpstep=4 / cplxblur=20.0 / qblur=0.5 / ip_ratio=1.40 / aq=1:1.00
Language : English
Default : Yes
Forced : No

Audio
ID : 2
Format : DTS
Format/Info : Digital Theater Systems
Codec ID : A_DTS
Duration : 2 h 52 min
Bit rate mode : Constant
Bit rate : 1 509 kb/s
Channel(s) : 4 channels
Channel layout : C L R Cb
Sampling rate : 48.0 kHz
Frame rate : 93.750 FPS (512 SPF)
Bit depth : 24 bits
Compression mode : Lossy
Stream size : 1.82 GiB (14%)
Language : English
Default : Yes
Forced : No

Text #1
ID : 3
Format : UTF-8
Codec ID : S_TEXT/UTF8
Codec ID/Info : UTF-8 Plain Text
Duration : 2 h 50 min
Bit rate : 84 b/s
Count of elements : 2505
Stream size : 106 KiB (0%)
Title : SDH
Language : English
Default : No
Forced : No

Text #2
ID : 4
Format : UTF-8
Codec ID : S_TEXT/UTF8
Codec ID/Info : UTF-8 Plain Text
Duration : 2 h 50 min
Bit rate : 77 b/s
Count of elements : 2350
Stream size : 97.1 KiB (0%)
Language : English
Default : No
Forced : No

Menu
00:00:00.000 : en:00:00:00.000
00:05:11.811 : en:00:05:11.811
00:08:29.342 : en:00:08:29.342
00:11:35.094 : en:00:11:35.094
00:13:57.103 : en:00:13:57.103
00:21:03.863 : en:00:21:03.863
00:24:28.067 : en:00:24:28.067
00:31:47.472 : en:00:31:47.472
00:33:06.985 : en:00:33:06.985
00:37:23.408 : en:00:37:23.408
00:39:25.163 : en:00:39:25.163
00:41:58.116 : en:00:41:58.116
00:47:25.710 : en:00:47:25.710
00:49:55.759 : en:00:49:55.759
00:52:44.895 : en:00:52:44.895
00:57:22.673 : en:00:57:22.673
01:01:56.713 : en:01:01:56.713
01:10:49.479 : en:01:10:49.479
01:16:37.560 : en:01:16:37.560
01:21:33.689 : en:01:21:33.689
01:28:16.057 : en:01:28:16.057
01:31:21.076 : en:01:31:21.076
01:36:09.597 : en:01:36:09.597
01:39:04.238 : en:01:39:04.238
01:43:17.091 : en:01:43:17.091
01:47:25.239 : en:01:47:25.239
01:49:45.212 : en:01:49:45.212
01:52:20.100 : en:01:52:20.100
01:55:48.909 : en:01:55:48.909
01:58:42.082 : en:01:58:42.082
02:04:29.462 : en:02:04:29.462
02:07:06.586 : en:02:07:06.586
02:14:43.776 : en:02:14:43.776
02:23:58.196 : en:02:23:58.196
02:28:44.716 : en:02:28:44.716
02:30:56.881 : en:02:30:56.881
02:36:09.760 : en:02:36:09.760
02:41:18.903 : en:02:41:18.903
02:45:13.237 : en:02:45:13.237





1 个附件 售价 大小 下载 时间

Hoop.Dreams.1994.DOCU.1080p.BluRay.x264-PSYCHD.zip 0 金币 66.28K 147 次 2天前

#1楼
发帖时间:2020-08-02 08:40:19   |   回复数:0
游客组