squallzhao
一派掌门

[更 早] [欧美] [恐怖] [BD-1080P] 邪魔入侵 Demon.Wind.1990.1080p.BluRay.x264-PSYCHD 9.84GB

-->

帖子完整标题:邪魔入侵 Demon.Wind.1990.1080p.BluRay.x264-PSYCHD 9.84GB



◎译  名 邪魔入侵
◎片  名 Demon Wind
◎年  代 1990
◎产  地 美国
◎类  别 恐怖
◎语  言 英语
◎上映日期 1990-07-05
◎IMDb评分 5.0/10 from 2059 users
◎IMDb链接 https://www.imdb.com/title/tt0099401
◎豆瓣评分 0/10 from 0 users
◎豆瓣链接 https://movie.douban.com/subject/1302288/
◎片  长 96分钟
◎导  演 Charles Philip Moore
◎编  剧 Charles Philip Moore
◎主  演 Eric Larson
      Francine Lapensée
      Rufus Norris


◎标  签 恐怖 | 美国 | 怪物 | B级片 | 宗教 | 美国电影 | 惊悚 | W-Cult

◎简  介

  Cory and friends visit a broken down old shack in the middle of nowhere to investigate the mysteries of his past. After realizing that his grandparents dabbled in black magic, demons and the undead begin to attack, taking Cory's friends down one by one.

Video
ID : 1
Format : AVC
Format/Info : Advanced Video Codec
Format profile : [email protected]
Format settings : CABAC / 4 Ref Frames
Format settings, CABAC : Yes
Format settings, Reference frames : 4 frames
Codec ID : V_MPEG4/ISO/AVC
Duration : 1 h 37 min
Bit rate : 12.9 Mb/s
Width : 1 920 pixels
Height : 1 040 pixels
Display aspect ratio : 1.85:1
Frame rate mode : Constant
Frame rate : 23.976 (24000/1001/189150) FPS
Color space : YUV
Chroma subsampling : 4:2:0
Bit depth : 8 bits
Scan type : Progressive
Bits/(Pixel*Frame) : 0.269
Stream size : 8.60 GiB (88%)
Writing library : x264 core 152 r2851 ba24899
Encoding settings : cabac=1 / ref=4 / deblock=1:-3:-3 / analyse=0x3:0x113 / me=umh / subme=8 / psy=1 / psy_rd=1.12:0.00 / mixed_ref=1 / me_range=32 / chroma_me=1 / trellis=2 / 8x8dct=1 / cqm=0 / deadzone=21,11 / fast_pskip=1 / chroma_qp_offset=-2 / threads=24 / lookahead_threads=4 / sliced_threads=0 / nr=0 / decimate=1 / interlaced=0 / bluray_compat=0 / constrained_intra=0 / bframes=3 / b_pyramid=2 / b_adapt=2 / b_bias=0 / direct=3 / weightb=1 / open_gop=0 / weightp=2 / keyint=240 / keyint_min=24 / scenecut=40 / intra_refresh=0 / rc_lookahead=50 / rc=2pass / mbtree=1 / bitrate=12860 / ratetol=1.0 / qcomp=0.60 / qpmin=0 / qpmax=69 / qpstep=4 / cplxblur=20.0 / qblur=0.5 / ip_ratio=1.40 / aq=3:0.75
Default : Yes
Forced : No
Statistics Tags Issue : no_variable_data 1970-01-01 00:00:00 / no_variable_data 2010-02-22 21:41:29
FromStats_BitRate : 12846486
FromStats_Duration : 01:37:59.874000000
FromStats_FrameCount : 140976
FromStats_StreamSize : 9441965426

Audio
ID : 2
Format : DTS
Format/Info : Digital Theater Systems
Codec ID : A_DTS
Duration : 1 h 37 min
Bit rate mode : Constant
Bit rate : 1 509 kb/s
Channel(s) : 5 channels
Channel layout : C L R Ls Rs
Sampling rate : 48.0 kHz
Frame rate : 93.750 FPS (512 SPF)
Bit depth : 24 bits
Compression mode : Lossy
Stream size : 1.03 GiB (11%)
Language : English
Default : Yes
Forced : No
Statistics Tags Issue : no_variable_data 1970-01-01 00:00:00 / no_variable_data 2010-02-22 21:41:29
FromStats_BitRate : 1508999
FromStats_Duration : 01:37:59.830000000
FromStats_FrameCount : 551234
FromStats_StreamSize : 1109082808

Text #1
ID : 3
Format : UTF-8
Codec ID : S_TEXT/UTF8
Codec ID/Info : UTF-8 Plain Text
Language : English
Default : No
Forced : No
Statistics Tags Issue : no_variable_data 1970-01-01 00:00:00 / no_variable_data 2010-02-22 21:41:29
FromStats_BitRate : 34
FromStats_Duration : 01:31:52.548000000
FromStats_FrameCount : 938
FromStats_StreamSize : 23566

Text #2
ID : 4
Format : UTF-8
Codec ID : S_TEXT/UTF8
Codec ID/Info : UTF-8 Plain Text
Title : SDH
Language : English
Default : No
Forced : No
Statistics Tags Issue : no_variable_data 1970-01-01 00:00:00 / no_variable_data 2010-02-22 21:41:29
FromStats_BitRate : 38
FromStats_Duration : 01:34:39.382000000
FromStats_FrameCount : 1220
FromStats_StreamSize : 27586

Menu
00:00:00.000 : en:00:00:00.000
00:22:11.330 : en:00:22:11.330
00:42:22.040 : en:00:42:22.040
00:59:58.095 : en:00:59:58.095
01:18:58.734 : en:01:18:58.734





1 个附件 售价 大小 下载 时间

Demon.Wind.1990.1080p.BluRay.x264-PSYCHD.zip 0 金币 99.86K 175 次 7天前

#1楼
发帖时间:2020-08-02 08:35:45   |   回复数:0
游客组