squallzhao
一派掌门

[更 早] [其他] [喜剧] [BD-1080P] 小鸡快跑/咪走鸡 Chicken.Run.2000.1080p.BluRay.x264-LCHD 4.37GB

-->

帖子完整标题:小鸡快跑/咪走鸡 Chicken.Run.2000.1080p.BluRay.x264-LCHD 4.37GB



◎译  名 小鸡快跑 / 咪走鸡(港) / 小鸡也暴动 / 小鸡大逃亡 / 落跑鸡(台) / 跑路小鸡 / 酷鸡大逃亡
◎片  名 Chicken Run
◎年  代 2000
◎产  地 英国 / 美国
◎类  别 喜剧 / 动画 / 家庭
◎语  言 英语
◎上映日期 2000-06-30(英国) / 2001-02-01(中国大陆)
◎IMDb评分 7.0/10 from 173475 users
◎IMDb链接 https://www.imdb.com/title/tt0120630
◎豆瓣评分 7.6/10 from 85196 users
◎豆瓣链接 https://movie.douban.com/subject/1292973/
◎片  长 84 分钟
◎导  演 彼得·洛伊德 Peter Lord / 尼克·帕克 Nick Park
◎编  剧 彼得·洛伊德 Peter Lord / 尼克·帕克 Nick Park / 凯瑞·柯克帕特里克 Karey Kirkpatrick / 马克·伯顿 Mark Burton / 约翰·奥法雷尔 John O'Farrell
◎主  演 菲尔·丹尼尔斯 Phil Daniels
      梅尔·吉布森 Mel Gibson
      Tony Haygarth
      简·霍洛克斯 Jane Horrocks
      米兰达·理查森 Miranda Richardson
      茱莉亚·莎华拉 Julia Sawalha
      蒂莫西·斯波 Timothy Spall
      艾美达·斯丹顿 Imelda Staunton
      本杰明·惠特罗 Benjamin Whitrow
      Lynn Ferguson


◎标  签 动画 | 美国 | 喜剧 | 英国 | 2000 | 粘土动画 | 梦工厂 | 搞笑

◎简  介

  英格兰一个叫特维迪的养鸡场里,一出奴隶们的悲剧正在上演。养鸡场的主人特维迪太太贪得无厌,一心只想着让母鸡们多下蛋,而特维迪先生则带着两条狼狗在整天监视母鸡们的一举一动。要是哪知母鸡下的蛋少了,那她随时就会召来末顶之灾。母鸡们整天生活得提心吊胆,生怕哪天厄运就会降临到自己的头上。母鸡金婕聪明而且有胆识,她绝不屈服于这种奴隶般的生活,于是,她决心带领大家一起逃出养鸡场!

◎获奖情况

  第58届金球奖(2001)
  电影类 最佳音乐/喜剧片(提名)

  第54届英国电影学院奖(2001)
  电影奖 最佳英国影片(提名) 大卫·斯普罗克斯顿 / 尼克·帕克 / 彼得·洛德 / 大卫·斯普罗克斯顿 / 尼克·帕克 / 彼得·洛德
  电影奖 最佳特殊视觉效果(提名) Mark Nelmes / Dave Alex Riddett / 派迪·伊森

  第28届动画安妮奖(2000)
  最佳动画长片(提名)
  最佳导演(提名) 彼得·洛德 / 尼克·帕克
  最佳编剧(提名) 凯瑞·柯克帕特里克

Video
ID : 1
Format : AVC
Format/Info : Advanced Video Codec
Format profile : [email protected]
Format settings : CABAC / 4 Ref Frames
Format settings, CABAC : Yes
Format settings, Reference frames : 4 frames
Codec ID : V_MPEG4/ISO/AVC
Duration : 1 h 24 min
Bit rate : 5 893 kb/s
Width : 1 920 pixels
Height : 1 080 pixels
Display aspect ratio : 16:9
Frame rate mode : Constant
Frame rate : 24.000 FPS
Color space : YUV
Chroma subsampling : 4:2:0
Bit depth : 8 bits
Scan type : Progressive
Bits/(Pixel*Frame) : 0.118
Stream size : 3.39 GiB (78%)
Writing library : x264 core 107 r1745 4785e8e
Encoding settings : cabac=1 / ref=4 / deblock=1:-1:-1 / analyse=0x3:0x113 / me=umh / subme=7 / psy=1 / psy_rd=1.00:0.00 / mixed_ref=1 / me_range=16 / chroma_me=1 / trellis=1 / 8x8dct=1 / cqm=0 / deadzone=21,11 / fast_pskip=1 / chroma_qp_offset=-2 / threads=12 / sliced_threads=0 / nr=0 / decimate=1 / interlaced=0 / constrained_intra=0 / bframes=3 / b_pyramid=2 / b_adapt=2 / b_bias=0 / direct=3 / weightb=1 / open_gop=0 / weightp=2 / keyint=250 / keyint_min=24 / scenecut=40 / intra_refresh=0 / rc_lookahead=40 / rc=2pass / mbtree=1 / bitrate=5893 / ratetol=1.0 / qcomp=0.60 / qpmin=10 / qpmax=51 / qpstep=4 / cplxblur=20.0 / qblur=0.5 / vbv_maxrate=50000 / vbv_bufsize=50000 / ip_ratio=1.40 / aq=1:1.00 / nal_hrd=none
Language : English
Default : Yes
Forced : Yes

Audio
ID : 2
Format : DTS ES XXCH
Format/Info : Digital Theater Systems
Commercial name : DTS-ES Discrete
Codec ID : A_DTS
Duration : 1 h 24 min
Bit rate mode : Constant
Bit rate : 1 509 kb/s
Channel(s) : 6 channels
Channel(s)_Original : 7 channels
ChannelLayout_Original : C L R Ls Rs Cs LFE
Sampling rate : 48.0 kHz
Frame rate : 93.750 FPS (512 SPF)
Bit depth : 16 bits
Compression mode : Lossy
Stream size : 912 MiB (20%)
Language : English
Default : Yes
Forced : Yes





1 个附件 售价 大小 下载 时间

Chicken.Run.2000.1080p.BluRay.x264-LCHD.zip 0 金币 88.79K 315 次 7天前

#1楼
发帖时间:2020-08-02 08:29:13   |   回复数:1
ahsayuni
武林高手
谢谢楼主分享~
6天前 #2楼
游客组