squallzhao
一派掌门

[2019] [其他] [动作] [BD-1080P] 最后一步 Cold.Blood.2019.1080p.BluRay.x264.DTS-HD.MA.5.1-CHD 8.17GB

-->

帖子完整标题:最后一步 Cold.Blood.2019.1080p.BluRay.x264.DTS-HD.MA.5.1-CHD 8.17GB



◎译  名 最后一步 / Cold Blood / The Last Step / 冷血遗产
◎片  名 Cold Blood Legacy
◎年  代 2019
◎产  地 法国 / 英国
◎类  别 动作 / 惊悚
◎上映日期 2019-05-15(法国)
◎IMDb评分 4.6/10 from 3335 users
◎IMDb链接 https://www.imdb.com/title/tt9082020
◎豆瓣评分 4.5/10 from 773 users
◎豆瓣链接 https://movie.douban.com/subject/27182710/
◎片  长 91分钟
◎导  演 Frederick Petitjean
◎编  剧 Frederick Petitjean
◎主  演 让·雷诺 Jean Reno
      莎拉·林德 Sarah Lind
      汤姆·霍珀 Tom Hopper


◎标  签 让·雷诺 | 杀手 | 犯罪 | 动作 | 法国 | 2019 | 让雷诺 | 法国电影

◎简  介

  让·雷诺参演动作惊悚片[最后一步](The Last Step,暂译)。弗雷德里奇·佩蒂让([算命好养家])自编自导。莎拉·林德、汤姆·霍珀加盟该片。亨利(让·雷诺饰)是具有传奇色彩的杀手,他本在湖边小屋安度生活,而一个在事故中逃生的年轻女子(莎拉·林德饰)却改变他的生活。该片将在12月开拍。

Video
ID : 1
Format : AVC
Format/Info : Advanced Video Codec
Format profile : [email protected]
Format settings : CABAC / 4 Ref Frames
Format settings, CABAC : Yes
Format settings, Reference frames : 4 frames
Codec ID : V_MPEG4/ISO/AVC
Duration : 1 h 31 min
Bit rate : 10.0 Mb/s
Width : 1 920 pixels
Height : 804 pixels
Display aspect ratio : 2.40:1
Frame rate mode : Constant
Frame rate : 23.976 (24000/1001/189150) FPS
Color space : YUV
Chroma subsampling : 4:2:0
Bit depth : 8 bits
Scan type : Progressive
Bits/(Pixel*Frame) : 0.271
Stream size : 6.39 GiB (78%)
Writing library : x264 core 157 r2867+150 7e91e0e t_mod_Custom_2 [[email protected] X86_64]
Encoding settings : cabac=1 / ref=4 / deblock=1:-3:-3 / analyse=0x3:0x133 / me=umh / subme=11 / psy=1 / fade_compensate=0.00 / psy_rd=0.90:0.10 / mixed_ref=1 / me_range=64 / chroma_me=1 / trellis=2 / 8x8dct=1 / cqm=0 / deadzone=21,11 / fast_pskip=0 / chroma_qp_offset=-4 / threads=25 / lookahead_threads=4 / sliced_threads=0 / nr=0 / decimate=1 / interlaced=0 / bluray_compat=0 / constrained_intra=0 / fgo=0 / bframes=8 / b_pyramid=2 / b_adapt=2 / b_bias=0 / direct=3 / weightb=1 / open_gop=0 / weightp=2 / keyint=250 / keyint_min=23 / scenecut=40 / intra_refresh=0 / rc_lookahead=60 / rc=crf / mbtree=0 / crf=18.0000 / qcomp=0.70 / qpmin=0:0:0 / qpmax=69:69:69 / qpstep=4 / vbv_maxrate=35000 / vbv_bufsize=35000 / crf_max=0.0 / nal_hrd=none / filler=0 / ip_ratio=1.40 / pb_ratio=1.30 / aq=3:1.00 / aq-sensitivity=10.00 / aq-factor=1.00:1.00:1.00 / aq2=0 / aq3=0
Language : English
Default : Yes
Forced : No

Audio
ID : 2
Format : DTS XLL
Format/Info : Digital Theater Systems
Commercial name : DTS-HD Master Audio
Codec ID : A_DTS
Duration : 1 h 31 min
Bit rate mode : Variable
Bit rate : 2 781 kb/s
Channel(s) : 6 channels
Channel layout : C L R Ls Rs LFE
Sampling rate : 48.0 kHz
Frame rate : 93.750 FPS (512 SPF)
Bit depth : 24 bits
Compression mode : Lossless
Stream size : 1.77 GiB (22%)
Language : English
Default : Yes
Forced : No

Text #1
ID : 3
Format : UTF-8
Codec ID : S_TEXT/UTF8
Codec ID/Info : UTF-8 Plain Text
Duration : 1 h 18 min
Bit rate : 36 b/s
Count of elements : 753
Stream size : 21.0 KiB (0%)
Title : English-SRT
Language : English
Default : Yes
Forced : No

Text #2
ID : 4
Format : PGS
Muxing mode : zlib
Codec ID : S_HDMV/PGS
Codec ID/Info : Picture based subtitle format used on BDs/HD-DVDs
Duration : 1 h 24 min
Bit rate : 12.3 kb/s
Count of elements : 1698
Stream size : 7.45 MiB (0%)
Title : English-PGS
Language : English
Default : No
Forced : No





1 个附件 售价 大小 下载 时间

Cold.Blood.2019.1080p.BluRay.x264.DTS-HD.MA.5.1-CHD.zip 0 金币 42.30K 574 次 2天前

#1楼
发帖时间:2020-08-02 08:24:00   |   回复数:0
游客组