squallzhao
一派掌门

[2019] [欧美] [剧情] [BD-1080P] 保险库 Vault.2019.1080p.BluRay.x264-PSYCHD 7.67GB

-->

帖子完整标题:保险库 Vault.2019.1080p.BluRay.x264-PSYCHD 7.67GB



◎译  名 保险库
◎片  名 Vault
◎年  代 2019
◎产  地 美国
◎类  别 剧情 / 犯罪
◎语  言 英语
◎上映日期 2019-06-14(美国)
◎IMDb评分 5.4/10 from 1646 users
◎IMDb链接 https://www.imdb.com/title/tt6838918
◎豆瓣评分 5.4/10 from 403 users
◎豆瓣链接 https://movie.douban.com/subject/30344685/
◎片  长 99分钟
◎导  演 汤姆·德努奇 Tom DeNucci
◎编  剧 汤姆·德努奇 Tom DeNucci / B. Dolan
◎主  演 西奥·罗西 Theo Rossi
      克莱夫·斯坦登 Clive Standen
      萨米拉·威利 Samira Wiley
      查兹·帕尔明特瑞 Chazz Palminteri
      唐·约翰逊 Don Johnson
      威廉·弗西斯 William Forsythe
      查克·齐托 Chuck Zito
      维森特·帕斯托雷 Vincent Pastore
      艾瑞克·卢茨 Eric Lutes
      波特·杨 Burt Young
      安东尼奥·库普 Antonio Cupo


◎标  签 犯罪 | 美国 | 黑帮 | 真人真事改编 | 2019 | 剧情 | 抢劫 | 美国电影

◎简  介

  讲述了1975年一群小时候犯罪分子试图在美国历史上实现最大抢劫的故事。从罗德岛州最小的州黑手党那里偷走了3000多万美元......

Video
ID : 1
Format : AVC
Format/Info : Advanced Video Codec
Format profile : [email protected]
Format settings : CABAC / 5 Ref Frames
Format settings, CABAC : Yes
Format settings, Reference frames : 5 frames
Codec ID : V_MPEG4/ISO/AVC
Duration : 1 h 39 min
Bit rate : 9 533 kb/s
Width : 1 920 pixels
Height : 824 pixels
Display aspect ratio : 2.35:1
Frame rate mode : Constant
Frame rate : 23.976 (24000/1001/189150) FPS
Color space : YUV
Chroma subsampling : 4:2:0
Bit depth : 8 bits
Scan type : Progressive
Bits/(Pixel*Frame) : 0.251
Stream size : 6.45 GiB (84%)
Writing library : x264 core 158 r2984 3759fcb
Encoding settings : cabac=1 / ref=5 / deblock=1:-3:-3 / analyse=0x3:0x113 / me=umh / subme=8 / psy=1 / psy_rd=1.00:0.00 / mixed_ref=1 / me_range=32 / chroma_me=1 / trellis=2 / 8x8dct=1 / cqm=0 / deadzone=21,11 / fast_pskip=1 / chroma_qp_offset=-2 / threads=26 / lookahead_threads=4 / sliced_threads=0 / nr=0 / decimate=1 / interlaced=0 / bluray_compat=0 / constrained_intra=0 / bframes=3 / b_pyramid=2 / b_adapt=2 / b_bias=0 / direct=3 / weightb=1 / open_gop=0 / weightp=2 / keyint=240 / keyint_min=24 / scenecut=40 / intra_refresh=0 / rc_lookahead=50 / rc=2pass / mbtree=1 / bitrate=9533 / ratetol=1.0 / qcomp=0.60 / qpmin=0 / qpmax=69 / qpstep=4 / cplxblur=20.0 / qblur=0.5 / ip_ratio=1.40 / aq=3:0.80
Default : Yes
Forced : No
Statistics Tags Issue : no_variable_data 1970-01-01 00:00:00 / no_variable_data 2010-02-22 21:41:29
FromStats_BitRate : 9529493
FromStats_Duration : 01:39:11.988000000
FromStats_FrameCount : 142705
FromStats_StreamSize : 7089928770

Audio
ID : 2
Format : DTS
Format/Info : Digital Theater Systems
Codec ID : A_DTS
Duration : 1 h 39 min
Bit rate mode : Constant
Bit rate : 1 509 kb/s
Channel(s) : 6 channels
Channel layout : C L R Ls Rs LFE
Sampling rate : 48.0 kHz
Frame rate : 93.750 FPS (512 SPF)
Bit depth : 24 bits
Compression mode : Lossy
Stream size : 1.05 GiB (14%)
Language : English
Default : Yes
Forced : No
Statistics Tags Issue : no_variable_data 1970-01-01 00:00:00 / no_variable_data 2010-02-22 21:41:29
FromStats_BitRate : 1508999
FromStats_Duration : 01:39:11.990000000
FromStats_FrameCount : 557999
FromStats_StreamSize : 1122693988

Text #1
ID : 3
Format : UTF-8
Codec ID : S_TEXT/UTF8
Codec ID/Info : UTF-8 Plain Text
Language : English
Default : No
Forced : No
Statistics Tags Issue : no_variable_data 1970-01-01 00:00:00 / no_variable_data 2010-02-22 21:41:29
FromStats_BitRate : 56
FromStats_Duration : 01:37:54.578000000
FromStats_FrameCount : 1180
FromStats_StreamSize : 41764

Text #2
ID : 4
Format : UTF-8
Codec ID : S_TEXT/UTF8
Codec ID/Info : UTF-8 Plain Text
Title : SDH
Language : English
Default : No
Forced : No
Statistics Tags Issue : no_variable_data 1970-01-01 00:00:00 / no_variable_data 2010-02-22 21:41:29
FromStats_BitRate : 59
FromStats_Duration : 01:38:05.880000000
FromStats_FrameCount : 1287
FromStats_StreamSize : 43992

Menu
00:00:00.000 : en:Chapter 01
00:05:39.631 : en:Chapter 02
00:13:41.738 : en:Chapter 03
00:17:38.266 : en:Chapter 04
00:23:28.407 : en:Chapter 05
00:29:12.250 : en:Chapter 06
00:35:42.474 : en:Chapter 07
00:42:18.995 : en:Chapter 08
00:47:11.328 : en:Chapter 09
00:57:36.578 : en:Chapter 10
01:00:26.540 : en:Chapter 11
01:04:45.882 : en:Chapter 12
01:13:09.385 : en:Chapter 13
01:18:57.316 : en:Chapter 14
01:25:14.401 : en:Chapter 15
01:30:32.135 : en:Chapter 16





1 个附件 售价 大小 下载 时间

Vault.2019.1080p.BluRay.x264-PSYCHD.zip 0 金币 39.08K 189 次 7天前

#1楼
发帖时间:2020-08-02 08:11:34   |   回复数:0
游客组