coor
一代宗师

[2010] [欧美] [剧情] [BD-1080P] 丘比特的神箭 Cupids.Arrow.2010.1080p.BluRay.x264.DTS-FGT 4.43GB

-->



◎译  名 丘比特的神箭
◎片  名 Cupid's Arrow
◎年  代 2010
◎产  地 美国
◎类  别 剧情 / 喜剧
◎语  言 英语
◎上映日期 2010
◎IMDb评分 3.6/10 from 268 users
◎IMDb链接 https://www.imdb.com/title/tt1220625
◎豆瓣评分 4.5/10 from 105 users
◎豆瓣链接 https://movie.douban.com/subject/5184108/
◎片  长 90分钟
◎导  演 Dan Peterson
◎编  剧 Wakelin McNeel
◎主  演 C·托马斯·豪威尔 C. Thomas Howell


◎标  签 爱情 | 美国电影 | 美国 | 丘比特的神箭 | 校园 | 烂片 | 剧情 | 文艺

◎简  介

  暂无相关剧情介绍
Video
ID : 1
Format : AVC
Format/Info : Advanced Video Codec
Format profile : [email protected]
Format settings, CABAC : Yes
Format settings, ReFrames : 4 frames
Codec ID : V_MPEG4/ISO/AVC
Duration : 1h 25mn
Bit rate : 6 480 Kbps
Width : 1 920 pixels
Height : 1 080 pixels
Display aspect ratio : 16:9
Frame rate mode : Constant
Frame rate : 23.976 (24000/1001) fps
Color space : YUV
Chroma subsampling : 4:2:0
Bit depth : 8 bits
Scan type : Progressive
Bits/(Pixel*Frame) : 0.130
Stream size : 3.88 GiB (88%)
Writing library : x264 core 140 r2377 1ca7bb9
Encoding settings : cabac=1 / ref=4 / deblock=1:-1:-1 / analyse=0x3:0x133 / me=umh / subme=7 / psy=1 / psy_rd=1.00:0.15 / mixed_ref=1 / me_range=16 / chroma_me=1 / trellis=1 / 8x8dct=1 / cqm=0 / deadzone=21,11 / fast_pskip=0 / chroma_qp_offset=-3 / threads=18 / lookahead_threads=3 / sliced_threads=0 / nr=0 / decimate=1 / interlaced=0 / bluray_compat=0 / constrained_intra=0 / bframes=3 / b_pyramid=2 / b_adapt=1 / b_bias=0 / direct=1 / weightb=1 / open_gop=0 / weightp=2 / keyint=250 / keyint_min=23 / scenecut=40 / intra_refresh=0 / rc_lookahead=40 / rc=crf / mbtree=1 / crf=20.0 / qcomp=0.60 / qpmin=0 / qpmax=69 / qpstep=4 / ip_ratio=1.40 / aq=1:1.00
Default : Yes
Forced : No

Audio
ID : 2
Format : DTS
Format/Info : Digital Theater Systems
Mode : 16
Format settings, Endianness : Big
Codec ID : A_DTS
Duration : 1h 25mn
Bit rate mode : Constant
Bit rate : 768 Kbps
Channel(s) : 6 channels
Channel positions : Front: L C R, Side: L R, LFE
Sampling rate : 48.0 KHz
Frame rate : 93.750 fps (512 spf)
Bit depth : 16 bits
Compression mode : Lossy
Stream size : 471 MiB (10%)
Language : English
Default : No
Forced : No





1 个附件 售价 大小 下载 时间

Cupids.Arrow.2010.1080p.BluRay.x264.DTS-FGT.torrent 0 金币 89.24K 154 次 14天前

#1楼
发帖时间:2020-06-30 21:17:41   |   回复数:1
911degrees
隐世仙人♂
非常感谢,谢谢分享
14天前 #2楼
游客组