coor
一代宗师

[2009] [欧美] [剧情] [BD-1080P] 四月阵雨/春雨 April.Showers.2009.1080p.BluRay.x264.DTS-FGT 3.80GB

-->



◎译  名 四月阵雨 / 春雨
◎片  名 April Showers
◎年  代 2009
◎产  地 美国
◎类  别 剧情
◎语  言 英语
◎上映日期 2009-04
◎IMDb评分 5.8/10 from 943 users
◎IMDb链接 https://www.imdb.com/title/tt1212451
◎豆瓣评分 0/10 from 0 users
◎豆瓣链接 https://movie.douban.com/subject/3444476/
◎片  长 USA: 94 分钟(Nashville Film Festival)
◎导  演 Andrew Robinson
◎编  剧 Andrew Robinson
◎主  演 Anna Adams
      Dominic Arellano
      Mark Arnold
      Tom Arnold


◎标  签 美国 | 青春 | 美国电影 | 纪录片 | 电影 | 2009 | 英国电影 | 美国独立

◎简  介

  《四月阵雨》导演安德鲁·罗宾逊是1999年美国科伦拜恩高中枪击案的幸存者,他以这起事件为背景,通过《四月阵雨》讲述了一个经历了这起事件的高中生如何面对自己的朋友的死亡的故事。
Video
ID : 1
Format : AVC
Format/Info : Advanced Video Codec
Format profile : [email protected]
Format settings, CABAC : Yes
Format settings, ReFrames : 4 frames
Codec ID : V_MPEG4/ISO/AVC
Duration : 1h 39mn
Bit rate : 3 868 Kbps
Width : 1 920 pixels
Height : 1 080 pixels
Display aspect ratio : 16:9
Frame rate mode : Constant
Frame rate : 25.000 fps
Color space : YUV
Chroma subsampling : 4:2:0
Bit depth : 8 bits
Scan type : Progressive
Bits/(Pixel*Frame) : 0.075
Stream size : 2.68 GiB (71%)
Writing library : x264 core 125 r2200 999b753
Encoding settings : cabac=1 / ref=4 / deblock=1:-1:-1 / analyse=0x3:0x133 / me=umh / subme=7 / psy=1 / psy_rd=1.00:0.15 / mixed_ref=1 / me_range=16 / chroma_me=1 / trellis=1 / 8x8dct=1 / cqm=0 / deadzone=21,11 / fast_pskip=0 / chroma_qp_offset=-3 / threads=9 / lookahead_threads=1 / sliced_threads=0 / nr=0 / decimate=1 / interlaced=0 / bluray_compat=0 / constrained_intra=0 / bframes=3 / b_pyramid=2 / b_adapt=1 / b_bias=0 / direct=1 / weightb=1 / open_gop=0 / weightp=2 / keyint=250 / keyint_min=25 / scenecut=40 / intra_refresh=0 / rc_lookahead=40 / rc=crf / mbtree=1 / crf=20.0 / qcomp=0.60 / qpmin=0 / qpmax=69 / qpstep=4 / ip_ratio=1.40 / aq=1:1.00
Default : Yes
Forced : No

Audio
ID : 2
Format : DTS
Format/Info : Digital Theater Systems
Mode : 16
Format settings, Endianness : Big
Codec ID : A_DTS
Duration : 1h 39mn
Bit rate mode : Constant
Bit rate : 1 509 Kbps
Channel(s) : 6 channels
Channel positions : Front: L C R, Side: L R, LFE
Sampling rate : 48.0 KHz
Frame rate : 93.750 fps (512 spf)
Bit depth : 16 bits
Compression mode : Lossy
Stream size : 1.04 GiB (28%)
Language : English
Default : No
Forced : No





1 个附件 售价 大小 下载 时间

April.Showers.2009.1080p.BluRay.x264.DTS-FGT.torrent 0 金币 76.50K 168 次 14天前

#1楼
发帖时间:2020-06-30 20:39:58   |   回复数:1
911degrees
隐世仙人♂
非常感谢,谢谢分享
14天前 #2楼
游客组