coor
一代宗师

[更 早] [欧美] [惊悚] [BD-1080P] 白眼球 White.of.the.Eye.1987.1080p.BluRay.x264.DD2.0-FGT 7.64GB

-->



◎译  名 白眼球
◎片  名 White of the Eye
◎年  代 1987
◎产  地 英国
◎类  别 惊悚
◎语  言 英语
◎上映日期 1987
◎IMDb评分 6.2/10 from 1889 users
◎IMDb链接 https://www.imdb.com/title/tt0094320
◎豆瓣评分 0/10 from 0 users
◎豆瓣链接 https://movie.douban.com/subject/4024593/
◎片  长 Spain: 110 分钟
◎导  演 唐纳德·卡梅尔 Donald Cammell
◎编  剧 唐纳德·卡梅尔 Donald Cammell / Andrew Klavan / Laurence Klavan
◎主  演 David Keith
      凯西·莫拉蒂 Cathy Moriarty
      阿兰·罗森伯格 Alan Rosenberg


◎标  签 恐怖 | 英国电影 | 惊悚 | 80s | 1987 | 英国 | 欧洲 | Neo-Noir

◎简  介

  In a wealthy and isolated desert community, a sound expert is targeted as the prime suspect of a series of brutal murders of local suburban housewives who were attacked and mutilated in their homes. As he desperately tries to prove his innocence, his young wife starts to uncover mysteries of her own...
Video
ID : 1
Format : AVC
Format/Info : Advanced Video Codec
Format profile : [email protected]
Format settings, CABAC : Yes
Format settings, ReFrames : 4 frames
Codec ID : V_MPEG4/ISO/AVC
Duration : 1h 51mn
Bit rate : 9 215 Kbps
Width : 1 920 pixels
Height : 1 048 pixels
Display aspect ratio : 1.85:1
Frame rate mode : Constant
Frame rate : 23.976 (24000/1001) fps
Original frame rate : 23.976 (23976/1000) fps
Color space : YUV
Chroma subsampling : 4:2:0
Bit depth : 8 bits
Scan type : Progressive
Bits/(Pixel*Frame) : 0.191
Stream size : 6.99 GiB (92%)
Writing library : x264 core 142 r2409 d6b4e63
Encoding settings : cabac=1 / ref=4 / deblock=1:0:0 / analyse=0x3:0x133 / me=umh / subme=8 / psy=1 / psy_rd=1.00:0.00 / mixed_ref=1 / me_range=16 / chroma_me=1 / trellis=1 / 8x8dct=1 / cqm=0 / deadzone=21,11 / fast_pskip=0 / chroma_qp_offset=-2 / threads=12 / lookahead_threads=2 / sliced_threads=0 / nr=0 / decimate=1 / interlaced=0 / bluray_compat=0 / constrained_intra=0 / bframes=3 / b_pyramid=2 / b_adapt=2 / b_bias=0 / direct=3 / weightb=1 / open_gop=0 / weightp=2 / keyint=250 / keyint_min=23 / scenecut=40 / intra_refresh=0 / rc_lookahead=50 / rc=2pass / mbtree=1 / bitrate=9215 / ratetol=1.0 / qcomp=0.60 / qpmin=0 / qpmax=69 / qpstep=4 / cplxblur=20.0 / qblur=0.5 / ip_ratio=1.40 / aq=1:1.00
Language : English
Default : Yes
Forced : Yes

Audio
ID : 2
Format : AC-3
Format/Info : Audio Coding 3
Mode extension : CM (complete main)
Format settings, Endianness : Big
Codec ID : A_AC3
Duration : 1h 51mn
Bit rate mode : Constant
Bit rate : 640 Kbps
Channel(s) : 2 channels
Channel positions : Front: L R
Sampling rate : 48.0 KHz
Frame rate : 31.250 fps (1536 spf)
Compression mode : Lossy
Stream size : 508 MiB (6%)
Language : English
Default : Yes
Forced : No

Text
ID : 3
Format : UTF-8
Codec ID : S_TEXT/UTF8
Codec ID/Info : UTF-8 Plain Text
Language : English
Default : No
Forced : No

Menu
00:00:00.000 : en:00:00:00.000
00:09:06.296 : en:00:09:06.296
00:18:14.927 : en:00:18:14.927
00:28:38.592 : en:00:28:38.592
00:35:09.065 : en:00:35:09.065
00:47:56.415 : en:00:47:56.415
00:57:11.678 : en:00:57:11.678
01:06:21.144 : en:01:06:21.144
01:14:24.919 : en:01:14:24.919
01:25:56.401 : en:01:25:56.401
01:34:08.518 : en:01:34:08.518
01:42:14.837 : en:01:42:14.837





1 个附件 售价 大小 下载 时间

White.of.the.Eye.1987.1080p.BluRay.x264.DD2.0-FGT.torrent 0 金币 77.03K 224 次 14天前

#1楼
发帖时间:2020-06-30 20:38:15   |   回复数:2
chulps
一代宗师
~ 珍惜+支持 ~
14天前 #2楼
911degrees
隐世仙人♂
非常感谢,谢谢分享
14天前 #3楼
游客组