coor
一代宗师

[2010] [欧美] [动作] [BD-1080P] 绝命反击/失败者 The.Losers.2010.1080p.BluRay.x264.DTS-FGT 9.51GB

-->



◎译  名 绝命反击 / 失败者 / 衰仔帮 / 败者为王
◎片  名 The Losers
◎年  代 2010
◎产  地 美国
◎类  别 动作 / 悬疑 / 惊悚 / 犯罪 / 冒险
◎语  言 英语
◎上映日期 2010-04-23
◎IMDb评分 6.3/10 from 89110 users
◎IMDb链接 https://www.imdb.com/title/tt0480255
◎豆瓣评分 6.4/10 from 10828 users
◎豆瓣链接 https://movie.douban.com/subject/2027933/
◎片  长 97 分钟
◎导  演 Sylvain White
◎编  剧 Peter Berg / James Vanderbilt
◎主  演 杰弗里·迪恩·摩根 Jeffrey Dean Morgan
      佐伊·索尔达娜 Zoe Saldana
      克里斯·埃文斯 Chris Evans
      杰森·帕特里克 Jason Patric
      伊德瑞斯·艾尔巴 Idris Elba
      哥伦布·绍特 Columbus Short
      奥斯卡·贾恩那达 óscar Jaenada


◎标  签 动作 | 美国 | 漫画改编 | 犯罪 | 美国电影 | 2010 | 喜剧 | 电影

◎简  介

  有一个受聘于美国政府的机密组织,成员包括领军人物克莱(杰弗里·迪恩·摩根 Jeffrey Dean Morgan 饰)、玩世不恭的简森(克里斯·埃文斯 Chris Evans 饰)、武器专家罗克(伊德瑞斯·艾尔巴 Idris Elba 饰)以及普奇(哥伦布·绍特Columbus Short 饰)、酷格(奥斯卡·贾恩那达 óscar Jaenada 饰)等人。他们在玻利维亚执行任务时,因内鬼麦克斯(杰森·帕特里克 Jason Patric 饰)的出卖,让每个人的生命都笼罩在死亡威胁里。克莱将计就计,伪造了大家的死亡,改名“失败者”秘密潜回美国。此时,一位叫做爱莎(佐伊·索尔达娜 Zoe Saldana 饰)的神秘女郎也加入失败者组织,与克莱一行人开始复仇。克莱一行人能否顺利的抓出内鬼,重新找回尊严呢?关键之处的秘密,其实全系于功夫高强的爱莎一身……

◎获奖情况

  第12届美国青少年选择奖(2010)
  最佳动作冒险电影(提名)
  最佳动作冒险电影女演员(提名) 佐伊·索尔达娜
Video
ID : 1
Format : AVC
Format/Info : Advanced Video Codec
Format profile : [email protected]
Format settings, CABAC : Yes
Format settings, ReFrames : 5 frames
Codec ID : V_MPEG4/ISO/AVC
Duration : 1h 37mn
Bit rate : 12.5 Mbps
Width : 1 920 pixels
Height : 800 pixels
Display aspect ratio : 2.40:1
Frame rate mode : Constant
Frame rate : 23.976 fps
Color space : YUV
Chroma subsampling : 4:2:0
Bit depth : 8 bits
Scan type : Progressive
Bits/(Pixel*Frame) : 0.340
Stream size : 8.30 GiB (87%)
Writing library : x264 core 88 r1471 1144615
Encoding settings : cabac=1 / ref=5 / deblock=1:-3:-3 / analyse=0x3:0x113 / me=umh / subme=10 / psy=1 / psy_rd=1.05:0.10 / mixed_ref=1 / me_range=48 / chroma_me=1 / trellis=2 / 8x8dct=1 / cqm=2 / deadzone=21,11 / fast_pskip=0 / chroma_qp_offset=-2 / threads=12 / sliced_threads=0 / nr=0 / decimate=1 / mbaff=0 / constrained_intra=0 / bframes=5 / b_pyramid=2 / b_adapt=2 / b_bias=0 / direct=3 / wpredb=1 / wpredp=2 / keyint=250 / keyint_min=25 / scenecut=40 / intra_refresh=0 / rc_lookahead=60 / rc=2pass / mbtree=1 / bitrate=12510 / ratetol=2.0 / qcomp=0.70 / qpmin=10 / qpmax=51 / qpstep=4 / cplxblur=20.0 / qblur=0.5 / vbv_maxrate=50000 / vbv_bufsize=50000 / ip_ratio=1.40 / aq=1:1.00
Language : English
Default : Yes
Forced : No

Audio
ID : 2
Format : DTS
Format/Info : Digital Theater Systems
Mode : 16
Format settings, Endianness : Big
Codec ID : A_DTS
Duration : 1h 37mn
Bit rate mode : Constant
Bit rate : 1 509 Kbps
Channel(s) : 6 channels
Channel positions : Front: L C R, Side: L R, LFE
Sampling rate : 48.0 KHz
Bit depth : 24 bits
Compression mode : Lossy
Stream size : 1.02 GiB (11%)
Language : English
Default : Yes
Forced : No

Text #1
ID : 3
Format : UTF-8
Codec ID : S_TEXT/UTF8
Codec ID/Info : UTF-8 Plain Text
Language : English
Default : No
Forced : No

Text #2
ID : 4
Format : UTF-8
Codec ID : S_TEXT/UTF8
Codec ID/Info : UTF-8 Plain Text
Title : SDH
Language : English
Default : No
Forced : No

Menu
00:00:00.000 : en:00:00:00.000
00:06:17.085 : en:00:06:17.085
00:10:47.355 : en:00:10:47.355
00:14:59.023 : en:00:14:59.023
00:20:54.878 : en:00:20:54.878
00:25:52.467 : en:00:25:52.467
00:31:21.546 : en:00:31:21.546
00:40:18.249 : en:00:40:18.249
00:46:43.133 : en:00:46:43.133
00:54:42.988 : en:00:54:42.988
00:59:43.204 : en:00:59:43.204
01:05:21.125 : en:01:05:21.125
01:12:58.582 : en:01:12:58.582
01:18:33.959 : en:01:18:33.959
01:26:28.725 : en:01:26:28.725
01:29:41.876 : en:01:29:41.876





1 个附件 售价 大小 下载 时间

The.Losers.2010.1080p.BluRay.x264.DTS-FGT.torrent 0 金币 95.68K 854 次 15天前

#1楼
发帖时间:2020-06-30 11:57:35   |   回复数:1
911degrees
隐世仙人♂
非常感谢,谢谢分享
15天前 #2楼
游客组