coor
一代宗师

[2018] [其他] [剧情] [BD-1080P] 美国动物/美式禽兽 American.Animals.2018.1080p.BluRay.x264.DTS-HD.MA.5.1-FGT 9.52GB

-->



◎译  名 美国动物 / 美式禽兽(港)
◎片  名 American Animals
◎年  代 2018
◎产  地 英国 / 美国
◎类  别 剧情 / 犯罪
◎语  言 英语
◎上映日期 2018-01-19(圣丹斯电影节) / 2018-06-01(美国)
◎IMDb评分 7.0/10 from 35735 users
◎IMDb链接 https://www.imdb.com/title/tt6212478
◎豆瓣评分 7.0/10 from 15777 users
◎豆瓣链接 https://movie.douban.com/subject/26908280/
◎片  长 116分钟
◎导  演 巴特·雷顿 Bart Layton
◎编  剧 巴特·雷顿 Bart Layton
◎主  演 埃文·彼得斯 Evan Peters
      巴里·基奥根 Barry Keoghan
      布莱克·詹纳 Blake Jenner
      安·唐德 Ann Dowd
      乌多·基尔 Udo Kier
      杰瑞德·亚伯拉汉姆森 Jared Abrahamson
      盖里·巴萨拉巴 Gary Basaraba
      拉腊·格赖斯 Lara Grice
      简·麦克尼尔 Jane McNeill
      韦恩·杜瓦尔 Wayne Duvall


◎标  签 犯罪 | 美国 | 青春 | 剧情 | 2018 | 黑色幽默 | 纪录片 | 独立

◎简  介

  儿时玩伴斯潘塞和沃伦很反叛,他们和其他两个学生谋划到特兰西瓦尼亚大学的特别收藏图书馆,去偷极其珍贵的奥杜邦版画和珍藏书。这部电影是根据真实故事改编,源于2004年发生在美国肯塔基州列克星敦市的特兰西瓦尼亚大学的一次图书馆抢劫事件。这个故事看起来非常离奇,但大部分情节都是 真实发生的,四个年轻人为了一一幅画作毁了一生,实施了美国历史上最鲁莽的抢劫之一。《美国动物》将抢劫类电影发挥到极致,在金钱、电影、追寻意义的疯狂故事中模糊现实与想象的界限。

◎获奖情况

  第34届圣丹斯电影节(2018)
  评审团大奖 剧情片(提名) 巴特·雷顿

  第34届美国独立精神奖(2019)
  最佳剪辑(提名)

  第21届英国独立电影奖(2018)
  最佳英国独立电影(提名)
  最佳导演(提名) 巴特·雷顿
  最佳编剧(提名) 巴特·雷顿
  最佳男配角(提名) 巴里·基奥恩 / 埃文·彼得斯
  最佳新人编剧 巴特·雷顿
  最佳选角(提名)
  最佳摄影(提名)
  最佳剪辑
  最佳音乐(提名)
  最佳音效(提名)

  第39届伦敦影评人协会奖(2019)
  技术成就奖(提名) 朱利安·哈特 / 尼克·芬顿 / 克里斯·吉尔

  第18届凤凰城影评人协会奖(2018)
  年度被忽略影片
  十佳影片
Video
ID : 1
Format : AVC
Format/Info : Advanced Video Codec
Format profile : [email protected]
Format settings : CABAC / 5 Ref Frames
Format settings, CABAC : Yes
Format settings, ReFrames : 5 frames
Codec ID : V_MPEG4/ISO/AVC
Duration : 1 h 56 min
Bit rate : 9 200 kb/s
Width : 1 920 pixels
Height : 816 pixels
Display aspect ratio : 2.35:1
Frame rate mode : Constant
Frame rate : 23.976 (24000/1001/189150) FPS
Color space : YUV
Chroma subsampling : 4:2:0
Bit depth : 8 bits
Scan type : Progressive
Bits/(Pixel*Frame) : 0.245
Stream size : 7.51 GiB (79%)
Title : American.Animals.2018.1080p.BluRay.x264.DTS-HD.MA.5.1-FGT
Writing library : x264 core 155 r2901 7d0ff22
Encoding settings : cabac=1 / ref=5 / deblock=1:-3:-3 / analyse=0x3:0x113 / me=umh / subme=8 / psy=1 / psy_rd=1.00:0.00 / mixed_ref=1 / me_range=16 / chroma_me=1 / trellis=1 / 8x8dct=1 / cqm=0 / deadzone=21,11 / fast_pskip=1 / chroma_qp_offset=-2 / threads=24 / lookahead_threads=4 / sliced_threads=0 / nr=0 / decimate=1 / interlaced=0 / bluray_compat=0 / constrained_intra=0 / bframes=3 / b_pyramid=2 / b_adapt=1 / b_bias=0 / direct=3 / weightb=1 / open_gop=0 / weightp=2 / keyint=250 / keyint_min=23 / scenecut=40 / intra_refresh=0 / rc_lookahead=50 / rc=2pass / mbtree=1 / bitrate=9200 / ratetol=1.0 / qcomp=0.60 / qpmin=0 / qpmax=69 / qpstep=4 / cplxblur=20.0 / qblur=0.5 / ip_ratio=1.40 / aq=1:1.00
Language : English
Default : Yes
Forced : No

Audio
ID : 2
Format : DTS
Format/Info : Digital Theater Systems
Format profile : MA / Core
Codec ID : A_DTS
Duration : 1 h 56 min
Bit rate mode : Variable / Constant
Bit rate : 2 416 kb/s / 1 509 kb/s
Channel(s) : 6 channels
Channel positions : Front: L C R, Side: L R, LFE
Sampling rate : 48.0 kHz
Frame rate : 93.750 FPS (512 SPF)
Bit depth : 24 bits
Compression mode : Lossless / Lossy
Stream size : 1.97 GiB (21%)
Title : American.Animals.2018.1080p.BluRay.x264.DTS-HD.MA.5.1-FGT
Language : English
Default : Yes
Forced : No

Text #1
ID : 3
Format : UTF-8
Codec ID : S_TEXT/UTF8
Codec ID/Info : UTF-8 Plain Text
Duration : 1 h 47 min
Bit rate : 61 b/s
Count of elements : 1401
Stream size : 48.0 KiB (0%)
Title : English-SRT
Language : English
Default : Yes
Forced : No

Text #2
ID : 4
Format : PGS
Muxing mode : zlib
Codec ID : S_HDMV/PGS
Codec ID/Info : Picture based subtitle format used on BDs/HD-DVDs
Duration : 1 h 56 min
Bit rate : 46.3 kb/s
Count of elements : 3328
Stream size : 38.4 MiB (0%)
Title : English-PGS
Language : English
Default : No
Forced : No

Text #3
ID : 5
Format : PGS
Muxing mode : zlib
Codec ID : S_HDMV/PGS
Codec ID/Info : Picture based subtitle format used on BDs/HD-DVDs
Duration : 1 h 51 min
Bit rate : 35.6 kb/s
Count of elements : 2407
Stream size : 28.3 MiB (0%)
Title : Spanish-PGS
Language : Spanish
Default : No
Forced : No

Menu
00:00:00.000 : en:Chapter 01
00:06:57.583 : en:Chapter 02
00:14:58.856 : en:Chapter 03
00:21:21.947 : en:Chapter 04
00:27:23.808 : en:Chapter 05
00:36:22.805 : en:Chapter 06
00:41:42.124 : en:Chapter 07
00:48:53.305 : en:Chapter 08
00:54:59.296 : en:Chapter 09
01:04:23.067 : en:Chapter 10
01:11:11.767 : en:Chapter 11
01:16:28.375 : en:Chapter 12
01:24:47.707 : en:Chapter 13
01:30:18.996 : en:Chapter 14
01:37:15.788 : en:Chapter 15
01:45:36.455 : en:Chapter 16





2 个附件 售价 大小 下载 时间

Finding.Dory.2016.1080p.BluRay.x264.DTS-HD.MA.7.1-FGT.torrent 0 金币 86.94K 147 次 15天前

American.Animals.2018.1080p.BluRay.x264.DTS-HD.MA.5.1-FGT.torrent 0 金币 95.71K 406 次 15天前

#1楼
发帖时间:2020-06-30 11:22:07   |   回复数:1
911degrees
隐世仙人♂
非常感谢,谢谢分享
15天前 #2楼
游客组