coor
一代宗师

[更 早] [欧美] [惊悚] [WEB-720P] 捕梦魔 Dreamkatcher.2020.720p.AMZN.WEBRip.DDP5.1.x264-NTG 2.54GB

-->

帖子完整标题:捕梦魔 Dreamkatcher.2020.720p.AMZN.WEBRip.DDP5.1.x264-NTG 2.54GB




◎译  名 捕梦魔
◎片  名 Dreamkatcher
◎年  代 2020
◎产  地 美国
◎类  别 惊悚 / 恐怖
◎语  言 英语
◎上映日期 2020-04-28(美国)
◎IMDb链接 https://www.imdb.com/title/tt10553210
◎豆瓣评分 0/10 from 0 users
◎豆瓣链接 https://movie.douban.com/subject/34805798/
◎导  演 Kerry Harris
◎编  剧 Kerry Harris / Dan V. Shea
◎主  演 拉达·米切尔 Radha Mitchell
      亨利·托马斯 Henry Thomas
      林·沙烨 Lin Shaye
      约瑟夫·比沙拉 Joseph Bishara
      Finlay Wojtak-Hissong
      Jules Willcox


◎标  签 恐怖 | 美国 | 2020 | 梦魔 | 恐怖片

◎简  介

  In order to stop his bad dreams a young boy steals a dreamcatcher from a mysterious neighbor forcing his family to rescue him from a nightmarish entity.
Video
ID : 1
Format : AVC
Format/Info : Advanced Video Codec
Format profile : [email protected]
Format settings : CABAC / 4 Ref Frames
Format settings, CABAC : Yes
Format settings, Reference frames : 4 frames
Codec ID : V_MPEG4/ISO/AVC
Duration : 1 h 25 min
Bit rate mode : Constant
Bit rate : 3 618 kb/s
Nominal bit rate : 6 000 kb/s
Width : 1 280 pixels
Height : 720 pixels
Display aspect ratio : 16:9
Frame rate mode : Constant
Frame rate : 23.976 (24000/1001/189150) FPS
Color space : YUV
Chroma subsampling : 4:2:0
Bit depth : 8 bits
Scan type : Progressive
Bits/(Pixel*Frame) : 0.164
Stream size : 2.16 GiB (85%)
Default : Yes
Forced : No
Color range : Limited
Color primaries : BT.709
Transfer characteristics : BT.709
Matrix coefficients : BT.709

Audio
ID : 2
Format : E-AC-3
Format/Info : Enhanced AC-3
Commercial name : Dolby Digital Plus
Codec ID : A_EAC3
Duration : 1 h 25 min
Bit rate mode : Constant
Bit rate : 640 kb/s
Channel(s) : 6 channels
Channel layout : L R C LFE Ls Rs
Sampling rate : 48.0 kHz
Frame rate : 31.250 FPS (1536 SPF)
Compression mode : Lossy
Stream size : 390 MiB (15%)
Language : English
Service kind : Complete Main
Default : Yes
Forced : No

Text #1
ID : 3
Format : UTF-8
Codec ID : S_TEXT/UTF8
Codec ID/Info : UTF-8 Plain Text
Duration : 1 h 11 min
Bit rate : 41 b/s
Count of elements : 747
Stream size : 21.8 KiB (0%)
Language : English
Default : No
Forced : No

Text #2
ID : 4
Format : UTF-8
Codec ID : S_TEXT/UTF8
Codec ID/Info : UTF-8 Plain Text
Duration : 1 h 17 min
Bit rate : 43 b/s
Count of elements : 856
Stream size : 24.3 KiB (0%)
Title : SDH
Language : English
Default : No
Forced : No





1 个附件 售价 大小 下载 时间

Dreamkatcher.2020.720p.AMZN.WEBRip.DDP5.1.x264-NTG.torrent 0 金币 25.91K 217 次 2月前

#1楼
发帖时间:2020-04-28 17:10:02   |   回复数:1
911degrees
隐世仙人♂
非常感谢,谢谢分享
2月前 #2楼
游客组