coor
一代宗师

[更 早] [欧美] [其他] [BD-720P] 出租的村舍 Cottage.to.Let.1941.720p.BluRay.x264-GHOULS 3.28GB

-->

帖子完整标题:出租的村舍 Cottage.to.Let.1941.720p.BluRay.x264-GHOULS 3.28GB




◎译  名 出租的村舍
◎片  名 Cottage to Let
◎年  代 1941
◎产  地 英国
◎类  别 悬疑 / 惊悚 / 战争
◎语  言 英语
◎上映日期 1941-09-06
◎IMDb评分 6.8/10 from 942 users
◎IMDb链接 https://www.imdb.com/title/tt0033491
◎豆瓣评分 0/10 from 0 users
◎豆瓣链接 https://movie.douban.com/subject/2297192/
◎片  长 90 分钟
◎导  演 安东尼·阿斯奎斯 Anthony Asquith
◎编  剧 Geoffrey Kerr
◎主  演 莱斯利·班克斯 Leslie Banks
      Jeanne De Casalis
      Carla Lehmann
      阿拉斯塔尔·西姆 Alastair Sim
      约翰·米尔斯 John Mills
      乔治·科尔 George Cole
      迈克·怀尔登 Michael Wilding


◎标  签 英国 | tik

◎简  介

  盟军和德国特工纷纷潜入苏格兰的一处村舍内,他们都对住这里的发明家即将完工的投弹瞄准器格外有兴趣
Video
ID : 1
Format : AVC
Format/Info : Advanced Video Codec
Format profile : [email protected]
Format settings : CABAC / 11 Ref Frames
Format settings, CABAC : Yes
Format settings, Reference frames : 11 frames
Codec ID : V_MPEG4/ISO/AVC
Duration : 1 h 30 min
Bit rate : 4 828 kb/s
Width : 992 pixels
Height : 720 pixels
Display aspect ratio : 1.378
Frame rate mode : Constant
Frame rate : 24.000 FPS
Color space : YUV
Chroma subsampling : 4:2:0
Bit depth : 8 bits
Scan type : Progressive
Bits/(Pixel*Frame) : 0.282
Stream size : 3.04 GiB (93%)
Writing library : x264 core 159 r2991 1771b55
Encoding settings : cabac=1 / ref=11 / deblock=1:-3:-3 / analyse=0x3:0x133 / me=umh / subme=9 / psy=1 / psy_rd=1.00:0.00 / mixed_ref=1 / me_range=24 / chroma_me=1 / trellis=1 / 8x8dct=1 / cqm=0 / deadzone=21,11 / fast_pskip=0 / chroma_qp_offset=-2 / threads=22 / lookahead_threads=3 / sliced_threads=0 / nr=0 / decimate=1 / interlaced=0 / bluray_compat=0 / constrained_intra=0 / bframes=8 / b_pyramid=2 / b_adapt=2 / b_bias=0 / direct=3 / weightb=1 / open_gop=0 / weightp=2 / keyint=250 / keyint_min=24 / scenecut=40 / intra_refresh=0 / rc_lookahead=60 / rc=2pass / mbtree=1 / bitrate=4828 / ratetol=1.0 / qcomp=0.60 / qpmin=0 / qpmax=69 / qpstep=4 / cplxblur=20.0 / qblur=0.5 / vbv_maxrate=62500 / vbv_bufsize=78125 / nal_hrd=none / filler=0 / ip_ratio=1.40 / aq=1:1.00
Default : Yes
Forced : No

Audio
ID : 2
Format : FLAC
Format/Info : Free Lossless Audio Codec
Codec ID : A_FLAC
Duration : 1 h 30 min
Bit rate mode : Variable
Bit rate : 373 kb/s
Channel(s) : 2 channels
Channel layout : L R
Sampling rate : 48.0 kHz
Frame rate : 10.417 FPS (4608 SPF)
Bit depth : 16 bits
Compression mode : Lossless
Stream size : 241 MiB (7%)
Writing library : Lavf58.29.100
Language : English
Default : Yes
Forced : No

Menu
00:00:00.000 : en:Chapter 01
00:07:48.250 : en:Chapter 02
00:15:22.625 : en:Chapter 03
00:24:00.333 : en:Chapter 04
00:31:34.250 : en:Chapter 05
00:39:02.167 : en:Chapter 06
00:45:49.042 : en:Chapter 07
00:53:41.750 : en:Chapter 08
01:01:49.083 : en:Chapter 09
01:06:34.833 : en:Chapter 10
01:13:44.625 : en:Chapter 11
01:21:22.750 : en:Chapter 12





1 个附件 售价 大小 下载 时间

Cottage.to.Let.1941.720p.BluRay.x264-GHOULS.torrent 0 金币 33.62K 266 次 6月前

#1楼
发帖时间:2020-03-25 21:48:23   |   回复数:1
911degrees
隐世仙人♂
非常感谢,谢谢分享
6月前 #2楼
游客组