coor
一代宗师

[2019] [其他] [科幻] [WEB-1080P] 饥饿站台 The.Platform.2019.SPANISH.1080p.NF.WEBRip.DDP5.1.x264-CM 5.48GB

-->

帖子完整标题:饥饿站台 The.Platform.2019.SPANISH.1080p.NF.WEBRip.DDP5.1.x264-CM 5.48GB




◎译  名 饥饿站台 / La plataforma / The Platform / 站台 / 绝命大平台(台) / 饥饿斗室(港)
◎片  名 El hoyo
◎年  代 2019
◎产  地 西班牙
◎类  别 科幻 / 惊悚 / 恐怖
◎语  言 西班牙语
◎上映日期 2019-09-06(多伦多电影节) / 2019-11-08(西班牙)
◎IMDb评分 7.1/10 from 592 users
◎IMDb链接 https://www.imdb.com/title/tt8228288
◎豆瓣评分 7.3/10 from 86 users
◎豆瓣链接 https://movie.douban.com/subject/34805219/
◎片  长 94分钟
◎导  演 Galder Gaztelu-Urrutia
◎编  剧 David Desola / 佩德罗·里韦罗 Pedro Rivero
◎主  演 伊万·马萨戈 Ivan Massagué
      Zorion Eguileor
      安东尼亚·圣胡安 Antonia San Juan
      埃米利奥·布阿勒 Emilio Buale
      Alexandra Masangkay
      Zihara Llana
      Mario Pardo
      Algis Arlauskas
      Txubio Fernández de Jáuregui
      Eric Goode
      óscar Oliver
      Chema Trujillo
      Miriam Martín
      Gorka Zufiaurre
      Miriam K. Martxante


◎标  签 惊悚 | 西班牙 | 人性 | 悬疑 | 科幻 | 恐怖 | 西班牙电影 | 2019

◎简  介

  一个不太遥远的“反乌托邦”公民自愿将自己监禁起来,并承诺释放后将增加社会流动性,但由于被囚禁,他变得如此激进,以至于不惜一切代价乘坐一张单程票上的魔鬼送菜升降机来保护“意大利奶油布丁”。要理解这条轨迹,我们需要了解他的监狱:监狱坑——一个“圆形监狱”的令人兴奋的排列方式 ,成百上千的平台被垂直堆叠起来,从中间被掏空。每天,一个装饰着奢华盛宴的平台从塔顶向下延伸。它会在每一层停留几分钟,让靠近顶层的人吃得饱饱的,而位于底层的人则在为吃剩的食物而战——如果还有剩余的话。随着对这种囚禁本质的噩梦般的细微差别的进一步显现,这个平台稳步地展示了自己作为对电影中科幻监狱神殿的最显著贡献之一,以及一个深刻的寓言,演示……

◎获奖情况

  第34届西班牙戈雅奖(2020)
  最佳新人导演(提名) Galder Gaztelu-Urrutia
  最佳原创剧本(提名) 佩德罗·里韦罗 / David Desola
  最佳特效

  第44届多伦多国际电影节(2019)
  观众选择奖 午夜疯狂单元
Video
ID : 1
Format : AVC
Format/Info : Advanced Video Codec
Format profile : [email protected]
Format settings : CABAC / 4 Ref Frames
Format settings, CABAC : Yes
Format settings, Reference frames : 4 frames
Codec ID : V_MPEG4/ISO/AVC
Duration : 1 h 34 min
Bit rate mode : Variable
Bit rate : 6 986 kb/s
Maximum bit rate : 20.0 Mb/s
Width : 1 920 pixels
Height : 1 080 pixels
Display aspect ratio : 16:9
Frame rate mode : Constant
Frame rate : 25.000 FPS
Color space : YUV
Chroma subsampling : 4:2:0
Bit depth : 8 bits
Scan type : Progressive
Bits/(Pixel*Frame) : 0.135
Stream size : 4.63 GiB (84%)
Writing library : x264 core 148 r2715 7e75228
Encoding settings : cabac=1 / ref=4 / deblock=1:0:0 / analyse=0x3:0x111 / me=umh / subme=10 / psy=1 / psy_rd=1.00:0.00 / mixed_ref=1 / me_range=120 / chroma_me=1 / trellis=2 / 8x8dct=1 / cqm=0 / deadzone=21,11 / fast_pskip=1 / chroma_qp_offset=-2 / threads=8 / lookahead_threads=2 / sliced_threads=0 / nr=0 / decimate=1 / interlaced=0 / bluray_compat=0 / stitchable=1 / constrained_intra=0 / bframes=16 / b_pyramid=2 / b_adapt=2 / b_bias=0 / direct=3 / weightb=1 / open_gop=0 / weightp=2 / keyint=250 / keyint_min=126 / scenecut=0 / intra_refresh=0 / rc_lookahead=250 / rc=crf / mbtree=1 / crf=16.0 / qcomp=0.50 / qpmin=6 / qpmax=51 / qpstep=4 / vbv_maxrate=20000 / vbv_bufsize=25000 / crf_max=0.0 / nal_hrd=vbr / filler=0 / ip_ratio=1.40 / aq=1:0.80
Default : Yes
Forced : No

Audio #1
ID : 2
Format : E-AC-3
Format/Info : Enhanced AC-3
Commercial name : Dolby Digital Plus
Codec ID : A_EAC3
Duration : 1 h 34 min
Bit rate mode : Constant
Bit rate : 640 kb/s
Channel(s) : 6 channels
Channel layout : L R C LFE Ls Rs
Sampling rate : 48.0 kHz
Frame rate : 31.250 FPS (1536 SPF)
Compression mode : Lossy
Stream size : 434 MiB (8%)
Language : Spanish
Service kind : Complete Main
Default : Yes
Forced : No

Audio #2
ID : 3
Format : E-AC-3
Format/Info : Enhanced AC-3
Commercial name : Dolby Digital Plus
Codec ID : A_EAC3
Duration : 1 h 34 min
Bit rate mode : Constant
Bit rate : 640 kb/s
Channel(s) : 6 channels
Channel layout : L R C LFE Ls Rs
Sampling rate : 48.0 kHz
Frame rate : 31.250 FPS (1536 SPF)
Compression mode : Lossy
Stream size : 434 MiB (8%)
Language : English
Service kind : Complete Main
Default : No
Forced : No

Text #1
ID : 4
Format : UTF-8
Codec ID : S_TEXT/UTF8
Codec ID/Info : UTF-8 Plain Text
Duration : 1 h 33 min
Bit rate : 40 b/s
Count of elements : 864
Stream size : 27.9 KiB (0%)
Language : English
Default : No
Forced : No

Text #2
ID : 5
Format : UTF-8
Codec ID : S_TEXT/UTF8
Codec ID/Info : UTF-8 Plain Text
Duration : 1 h 33 min
Bit rate : 58 b/s
Count of elements : 870
Stream size : 40.3 KiB (0%)
Language : Arabic
Default : No
Forced : No

Text #3
ID : 6
Format : UTF-8
Codec ID : S_TEXT/UTF8
Codec ID/Info : UTF-8 Plain Text
Duration : 1 h 33 min
Bit rate : 36 b/s
Count of elements : 870
Stream size : 25.1 KiB (0%)
Language : Czech
Default : No
Forced : No

Text #4
ID : 7
Format : UTF-8
Codec ID : S_TEXT/UTF8
Codec ID/Info : UTF-8 Plain Text
Duration : 1 h 33 min
Bit rate : 37 b/s
Count of elements : 870
Stream size : 25.7 KiB (0%)
Language : Danish
Default : No
Forced : No

Text #5
ID : 8
Format : UTF-8
Codec ID : S_TEXT/UTF8
Codec ID/Info : UTF-8 Plain Text
Duration : 1 h 33 min
Bit rate : 40 b/s
Count of elements : 869
Stream size : 28.0 KiB (0%)
Language : German
Default : No
Forced : No

Text #6
ID : 9
Format : UTF-8
Codec ID : S_TEXT/UTF8
Codec ID/Info : UTF-8 Plain Text
Duration : 1 h 33 min
Bit rate : 67 b/s
Count of elements : 869
Stream size : 46.5 KiB (0%)
Language : Greek
Default : No
Forced : No

Text #7
ID : 10
Format : UTF-8
Codec ID : S_TEXT/UTF8
Codec ID/Info : UTF-8 Plain Text
Duration : 1 h 27 min
Bit rate : 46 b/s
Count of elements : 883
Stream size : 30.0 KiB (0%)
Title : European
Language : Spanish
Default : No
Forced : No

Text #8
ID : 11
Format : UTF-8
Codec ID : S_TEXT/UTF8
Codec ID/Info : UTF-8 Plain Text
Duration : 1 h 28 min
Bit rate : 51 b/s
Count of elements : 1000
Stream size : 33.2 KiB (0%)
Title : European SDH
Language : Spanish
Default : No
Forced : No

Text #9
ID : 12
Format : UTF-8
Codec ID : S_TEXT/UTF8
Codec ID/Info : UTF-8 Plain Text
Duration : 1 h 33 min
Bit rate : 36 b/s
Count of elements : 867
Stream size : 25.1 KiB (0%)
Language : Finnish
Default : No
Forced : No

Text #10
ID : 13
Format : UTF-8
Codec ID : S_TEXT/UTF8
Codec ID/Info : UTF-8 Plain Text
Duration : 1 h 33 min
Bit rate : 36 b/s
Count of elements : 861
Stream size : 25.0 KiB (0%)
Language : French
Default : No
Forced : No

Text #11
ID : 14
Format : UTF-8
Codec ID : S_TEXT/UTF8
Codec ID/Info : UTF-8 Plain Text
Duration : 1 h 33 min
Bit rate : 52 b/s
Count of elements : 870
Stream size : 36.2 KiB (0%)
Language : Hebrew
Default : No
Forced : No

Text #12
ID : 15
Format : UTF-8
Codec ID : S_TEXT/UTF8
Codec ID/Info : UTF-8 Plain Text
Duration : 1 h 33 min
Bit rate : 101 b/s
Count of elements : 870
Stream size : 70.0 KiB (0%)
Language : Hindi
Default : No
Forced : No

Text #13
ID : 16
Format : UTF-8
Codec ID : S_TEXT/UTF8
Codec ID/Info : UTF-8 Plain Text
Duration : 1 h 33 min
Bit rate : 38 b/s
Count of elements : 850
Stream size : 26.1 KiB (0%)
Language : Hungarian
Default : No
Forced : No

Text #14
ID : 17
Format : UTF-8
Codec ID : S_TEXT/UTF8
Codec ID/Info : UTF-8 Plain Text
Duration : 1 h 33 min
Bit rate : 37 b/s
Count of elements : 870
Stream size : 26.0 KiB (0%)
Language : Indonesian
Default : No
Forced : No

Text #15
ID : 18
Format : UTF-8
Codec ID : S_TEXT/UTF8
Codec ID/Info : UTF-8 Plain Text
Duration : 1 h 33 min
Bit rate : 37 b/s
Count of elements : 851
Stream size : 26.1 KiB (0%)
Language : Italian
Default : No
Forced : No

Text #16
ID : 19
Format : UTF-8
Codec ID : S_TEXT/UTF8
Codec ID/Info : UTF-8 Plain Text
Duration : 1 h 33 min
Bit rate : 37 b/s
Count of elements : 870
Stream size : 25.6 KiB (0%)
Language : Norwegian Bokmal
Default : No
Forced : No

Text #17
ID : 20
Format : UTF-8
Codec ID : S_TEXT/UTF8
Codec ID/Info : UTF-8 Plain Text
Duration : 1 h 33 min
Bit rate : 36 b/s
Count of elements : 864
Stream size : 25.3 KiB (0%)
Language : Dutch
Default : No
Forced : No

Text #18
ID : 21
Format : UTF-8
Codec ID : S_TEXT/UTF8
Codec ID/Info : UTF-8 Plain Text
Duration : 1 h 33 min
Bit rate : 35 b/s
Count of elements : 861
Stream size : 24.6 KiB (0%)
Language : Polish
Default : No
Forced : No

Text #19
ID : 22
Format : UTF-8
Codec ID : S_TEXT/UTF8
Codec ID/Info : UTF-8 Plain Text
Duration : 1 h 33 min
Bit rate : 38 b/s
Count of elements : 869
Stream size : 26.7 KiB (0%)
Language : Portuguese
Default : No
Forced : No

Text #20
ID : 23
Format : UTF-8
Codec ID : S_TEXT/UTF8
Codec ID/Info : UTF-8 Plain Text
Duration : 1 h 33 min
Bit rate : 35 b/s
Count of elements : 869
Stream size : 24.5 KiB (0%)
Title : Brazilian
Language : Portuguese
Default : No
Forced : No

Text #21
ID : 24
Format : UTF-8
Codec ID : S_TEXT/UTF8
Codec ID/Info : UTF-8 Plain Text
Duration : 1 h 33 min
Bit rate : 43 b/s
Count of elements : 870
Stream size : 29.9 KiB (0%)
Language : Romanian
Default : No
Forced : No

Text #22
ID : 25
Format : UTF-8
Codec ID : S_TEXT/UTF8
Codec ID/Info : UTF-8 Plain Text
Duration : 1 h 33 min
Bit rate : 62 b/s
Count of elements : 870
Stream size : 43.2 KiB (0%)
Language : Russian
Default : No
Forced : No

Text #23
ID : 26
Format : UTF-8
Codec ID : S_TEXT/UTF8
Codec ID/Info : UTF-8 Plain Text
Duration : 1 h 33 min
Bit rate : 39 b/s
Count of elements : 851
Stream size : 26.9 KiB (0%)
Language : Swedish
Default : No
Forced : No

Text #24
ID : 27
Format : UTF-8
Codec ID : S_TEXT/UTF8
Codec ID/Info : UTF-8 Plain Text
Duration : 1 h 33 min
Bit rate : 92 b/s
Count of elements : 870
Stream size : 63.4 KiB (0%)
Language : Thai
Default : No
Forced : No

Text #25
ID : 28
Format : UTF-8
Codec ID : S_TEXT/UTF8
Codec ID/Info : UTF-8 Plain Text
Duration : 1 h 33 min
Bit rate : 39 b/s
Count of elements : 870
Stream size : 26.8 KiB (0%)
Language : Turkish
Default : No
Forced : No

Text #26
ID : 29
Format : UTF-8
Codec ID : S_TEXT/UTF8
Codec ID/Info : UTF-8 Plain Text
Duration : 1 h 33 min
Bit rate : 55 b/s
Count of elements : 870
Stream size : 37.8 KiB (0%)
Language : Vietnamese
Default : No
Forced : No

Text #27
ID : 30
Format : UTF-8
Codec ID : S_TEXT/UTF8
Codec ID/Info : UTF-8 Plain Text
Duration : 1 h 33 min
Bit rate : 39 b/s
Count of elements : 870
Stream size : 27.1 KiB (0%)
Title : Simplified
Language : Chinese
Default : No
Forced : No





1 个附件 售价 大小 下载 时间

The.Platform.2019.SPANISH.1080p.NF.WEBRip.DDP5.1.x264-CM.torrent 0 金币 27.93K 4627 次 2月前

#1楼
发帖时间:2020-03-21 00:30:36   |   回复数:3
liyouchai
隐世仙人♂
谢谢楼主分享资源
2月前 #2楼
911degrees
隐世仙人♂
非常感谢,谢谢分享
2月前 #3楼
ff8590
武林高手
感谢楼主分享!!
1月前 #4楼
游客组