coor
一代宗师

[更 早] [日本] [科幻] [BD-720P] 机动战士高达0083 吉翁的残光/机动战士高达0083 自护的残光 Mobile.Suit.Gundam.0083.The.Afterglow.of.Zeon.

-->

帖子完整标题:机动战士高达0083 吉翁的残光/机动战士高达0083 自护的残光 Mobile.Suit.Gundam.0083.The.Afterglow.of.Zeon.1992.720p.BluRay.x264-HAiKU 2.67GB




◎译  名 机动战士高达0083 吉翁的残光 / 机动战士高达0083 自护的残光
◎片  名 機動戦士ガンダム0083 ジオンの残光
◎年  代 1992
◎产  地 日本
◎类  别 科幻 / 动画
◎语  言 日语
◎上映日期 1992-08-29
◎IMDb评分 7.1/10 from 335 users
◎IMDb链接 https://www.imdb.com/title/tt0159508
◎豆瓣评分 8.8/10 from 2016 users
◎豆瓣链接 https://movie.douban.com/subject/1766571/
◎片  长 119分钟
◎导  演 今西隆志 Takashi Imanishi
◎编  剧 富野由悠季 Yoshiyuki Tomino / 矢立肇 Hajime Yatate
◎主  演 堀川亮 Ry? Horikawa
      佐久间玲 Rei Sakuma
      大塚明夫 Akio ?tsuka
      大塚周夫 Chikao ?tsuka
      渡部猛 Takeshi Watabe
      田中秀幸 Hideyuki Tanaka
      西村知道 Tomomichi Nishimura
      乡里大辅 Daisuke G?ri
      大泷进矢 Shinya ?taki
      藤城裕士 Y?ji Fujishiro
      玄田哲章 Tessh? Genda
      小林优子 Y?ko Kobayashi
      菅原正志 Masashi Sugawara
      山田义晴 Yamada Yoshiharu
      伊仓一惠 Kazue Ikura
      岸野一彦 Kazishhiko Kishino
      中村大树 Daiki Nakamura
      菊池正美 Masami Kikuchi
      荒木香惠 Kae Araki
      卷岛直树 Makishima Naoki
      户谷公次 K?ji Totani
      茶风林 Chaf?rin
      干本雄之 Y?ji Mikimoto
      市川治 Osamu Ichikawa
      松井菜樱子 Naoko Matsui
      真柴摩利 Mashiba Mari
      青森伸 Shin Aomori
      挂川裕彦 Kakegawa Hirohiko
      稻叶实 Minoru Inaba
      飞田展男 Nobuo Tobita
      田口昂 Takashi Taguchi
      山崎巧 Takumi Yamazaki
      秋元羊介 Y?suke Akimoto
      森川智之 Toshiyuki Morikawa
      盐屋浩三 K?z? Shioya
      岩坪理江 Iwatsubo Rie
      樱井敏治 Toshiharu Sakurai
      小林清志 Kiyoshi Kobayashi


◎标  签 Gundam | 动画 | 高达 | 日本 | 日本动画 | 剧场版 | 0083 | 科幻

◎简  介

  一年战争已告一段落的三年后,基于地球联邦军重建计划而被提议的“高达开发计划”开始执行,其中的两台原型机RX-78GP01与RX-78GP02A为了实施性能测试而搬运至澳大利亚"托林顿"基地,但是吉恩残党查知此项计划,并且袭击该基地企图夺取装载有核弹的GP02A。曾经被称呼为“所罗门的恶梦”的吉恩军王牌机师阿纳贝尔?卡多少校(又译为阿纳贝鲁?卡图)成功的搭上了GP02A,但是在企图脱离的GP02A面前,新手测试驾驶员浦木宏驾驶了GP01拦阻,揭开了宇宙世纪0083年星屑作战以及提坦斯诞生的序幕。。。
Video
ID : 1
Format : AVC
Format/Info : Advanced Video Codec
Format profile : [email protected]
Format settings : CABAC / 5 Ref Frames
Format settings, CABAC : Yes
Format settings, Reference frames : 5 frames
Codec ID : V_MPEG4/ISO/AVC
Duration : 1 h 59 min
Bit rate : 2 614 kb/s
Width : 960 pixels
Height : 720 pixels
Display aspect ratio : 4:3
Frame rate mode : Constant
Frame rate : 23.976 (24000/1001/189150) FPS
Color space : YUV
Chroma subsampling : 4:2:0
Bit depth : 8 bits
Scan type : Progressive
Bits/(Pixel*Frame) : 0.158
Stream size : 2.17 GiB (82%)
Writing library : x264 core 159 r2991 1771b55
Encoding settings : cabac=1 / ref=5 / deblock=1:-3:-3 / analyse=0x3:0x133 / me=umh / subme=9 / psy=1 / psy_rd=1.00:0.00 / mixed_ref=1 / me_range=16 / chroma_me=1 / trellis=2 / 8x8dct=1 / cqm=0 / deadzone=21,11 / fast_pskip=0 / chroma_qp_offset=-2 / threads=22 / lookahead_threads=1 / sliced_threads=0 / nr=0 / decimate=1 / interlaced=0 / bluray_compat=0 / constrained_intra=0 / bframes=3 / b_pyramid=2 / b_adapt=1 / b_bias=0 / direct=3 / weightb=1 / open_gop=0 / weightp=2 / keyint=240 / keyint_min=24 / scenecut=40 / intra_refresh=0 / rc_lookahead=50 / rc=2pass / mbtree=1 / bitrate=2614 / ratetol=1.0 / qcomp=0.60 / qpmin=0 / qpmax=69 / qpstep=4 / cplxblur=20.0 / qblur=0.5 / ip_ratio=1.40 / aq=1:1.00
Language : English
Default : Yes
Forced : No

Audio
ID : 2
Format : FLAC
Format/Info : Free Lossless Audio Codec
Codec ID : A_FLAC
Duration : 1 h 59 min
Bit rate mode : Variable
Bit rate : 569 kb/s
Channel(s) : 2 channels
Channel layout : L R
Sampling rate : 48.0 kHz
Frame rate : 11.719 FPS (4096 SPF)
Bit depth : 16 bits
Compression mode : Lossless
Stream size : 485 MiB (18%)
Writing library : libFLAC 1.2.1 (UTC 2007-09-17)
Language : Japanese
Default : Yes
Forced : No

Text
ID : 3
Format : UTF-8
Codec ID : S_TEXT/UTF8
Codec ID/Info : UTF-8 Plain Text
Duration : 1 h 56 min
Bit rate : 54 b/s
Count of elements : 1230
Stream size : 46.8 KiB (0%)
Title : English Forced
Language : English
Default : Yes
Forced : Yes





1 个附件 售价 大小 下载 时间

Mobile.Suit.Gundam.0083.The.Afterglow.of.Zeon.1992.720p.BluRay.x264-HAiKU.torrent 0 金币 27.69K 1596 次 2月前

#1楼
发帖时间:2020-03-20 22:21:24   |   回复数:2
911degrees
隐世仙人♂
非常感谢,谢谢分享
2月前 #2楼
shamanfish
小有名气
叫自护的是HK的翻译
2月前 #3楼
游客组