coor
一代宗师

[更 早] [欧美] [科幻] [BD-1080P] 突变 The.Mutations.1974.1080p.BluRay.x264.DTS-FGT 8.39GB

-->

帖子完整标题:突变 The.Mutations.1974.1080p.BluRay.x264.DTS-FGT 8.39GB




◎译  名 突变
◎片  名 The Mutations
◎年  代 1974
◎产  地 英国
◎类  别 科幻 / 恐怖
◎语  言 英语 / 德语
◎上映日期 1974-09-25
◎IMDb评分 5.2/10 from 888 users
◎IMDb链接 https://www.imdb.com/title/tt0070423
◎豆瓣评分 0/10 from 0 users
◎豆瓣链接 https://movie.douban.com/subject/3665301/
◎片  长 92 分钟
◎导  演 杰克·卡迪夫 Jack Cardiff
◎编  剧 Edward Mann / Robert D. Weinbach
◎主  演 唐纳德·普利森斯 Donald Pleasence
      Tom Baker
      Brad Harris


◎标  签 科幻 | 恐怖 | Cult | 英国电影 | 怪物 | 美国电影 | 有英 | 国外电影

◎简  介

  暂无相关剧情介绍
Video
ID : 1
Format : AVC
Format/Info : Advanced Video Codec
Format profile : [email protected]
Format settings : CABAC / 4 Ref Frames
Format settings, CABAC : Yes
Format settings, Reference frames : 4 frames
Codec ID : V_MPEG4/ISO/AVC
Duration : 1 h 32 min
Bit rate : 11.5 Mb/s
Width : 1 800 pixels
Height : 1 080 pixels
Display aspect ratio : 5:3
Frame rate mode : Constant
Frame rate : 23.976 (24000/1001/189150) FPS
Color space : YUV
Chroma subsampling : 4:2:0
Bit depth : 8 bits
Scan type : Progressive
Bits/(Pixel*Frame) : 0.247
Stream size : 7.41 GiB (88%)
Title : The.Mutations.1974.1080p.BluRay.x264.DTS-FGT
Writing library : x264 core 148 r2748 97eaef2
Encoding settings : cabac=1 / ref=4 / deblock=1:-2:-2 / analyse=0x3:0x113 / me=umh / subme=9 / psy=1 / psy_rd=1.00:0.15 / mixed_ref=1 / me_range=16 / chroma_me=1 / trellis=2 / 8x8dct=1 / cqm=0 / deadzone=21,11 / fast_pskip=1 / chroma_qp_offset=-3 / threads=72 / lookahead_threads=3 / sliced_threads=0 / nr=0 / decimate=1 / interlaced=0 / bluray_compat=0 / constrained_intra=0 / bframes=3 / b_pyramid=2 / b_adapt=1 / b_bias=0 / direct=3 / weightb=1 / open_gop=0 / weightp=2 / keyint=250 / keyint_min=25 / scenecut=40 / intra_refresh=0 / rc_lookahead=50 / rc=2pass / mbtree=1 / bitrate=11500 / ratetol=1.0 / qcomp=0.60 / qpmin=0 / qpmax=69 / qpstep=4 / cplxblur=20.0 / qblur=0.5 / vbv_maxrate=31250 / vbv_bufsize=31250 / nal_hrd=none / filler=0 / ip_ratio=1.40 / aq=1:1.00
Language : English
Default : Yes
Forced : No

Audio
ID : 2
Format : DTS
Format/Info : Digital Theater Systems
Codec ID : A_DTS
Duration : 1 h 32 min
Bit rate mode : Constant
Bit rate : 1 509 kb/s
Channel(s) : 2 channels
Channel layout : L R
Sampling rate : 48.0 kHz
Frame rate : 93.750 FPS (512 SPF)
Bit depth : 24 bits
Compression mode : Lossy
Stream size : 996 MiB (12%)
Title : The.Mutations.1974.1080p.BluRay.x264.DTS-FGT
Language : English
Default : Yes
Forced : No

Text
ID : 3
Format : UTF-8
Codec ID : S_TEXT/UTF8
Codec ID/Info : UTF-8 Plain Text
Duration : 1 h 24 min
Bit rate : 40 b/s
Count of elements : 828
Stream size : 25.3 KiB (0%)
Language : English
Default : Yes
Forced : No

Menu
00:00:00.000 : en:Chapter 01
00:07:47.550 : en:Chapter 02
00:14:56.562 : en:Chapter 03
00:24:51.490 : en:Chapter 04
00:33:58.620 : en:Chapter 05
00:49:20.166 : en:Chapter 06
00:57:44.795 : en:Chapter 07
01:09:02.930 : en:Chapter 08
01:17:37.820 : en:Chapter 09
01:26:42.489 : en:Chapter 10





1 个附件 售价 大小 下载 时间

The.Mutations.1974.1080p.BluRay.x264.DTS-FGT.torrent 0 金币 42.46K 301 次 2月前

#1楼
发帖时间:2020-03-20 13:16:18   |   回复数:1
911degrees
隐世仙人♂
非常感谢,谢谢分享
2月前 #2楼
游客组