coor
一代宗师

[更 早] [日本] [科幻] [BD-720P] 哥斯拉·迷你拉·加巴拉:全体怪兽大进击 All.Monsters.Attack.1969.Criterion.INTERNAL.720p.BluRay.x264

-->

帖子完整标题:哥斯拉·迷你拉·加巴拉:全体怪兽大进击 All.Monsters.Attack.1969.Criterion.INTERNAL.720p.BluRay.x264-JRP 3.28GB




◎译  名 哥斯拉·迷你拉·加巴拉:全体怪兽大进击 / Godzilla, Minilla, Gabara: All Monsters Attack
◎片  名 ゴジラ?ミニラ?ガバラ オール怪獣大進撃
◎年  代 1969
◎产  地 日本
◎类  别 科幻 / 家庭
◎语  言 日语
◎上映日期 1969-12-20
◎IMDb评分 3.8/10 from 3541 users
◎IMDb链接 https://www.imdb.com/title/tt0064373
◎豆瓣评分 4.4/10 from 160 users
◎豆瓣链接 https://movie.douban.com/subject/2059296/
◎片  长 USA: 70 分钟
◎导  演 本多猪四郎 Ishir? Honda
◎编  剧 関沢新一
◎主  演 佐原健二 Kenji Sahara
      中真千子
      矢崎知纪
      天本英世 Eisei Amamoto


◎标  签 哥斯拉 | 日本 | 日本电影 | 科幻 | 特摄 | 1969 | 本多猪四郎 | 电影

◎简  介

  暂无相关剧情介绍
Video
ID : 1
Format : AVC
Format/Info : Advanced Video Codec
Format profile : [email protected]
Format settings : CABAC / 5 Ref Frames
Format settings, CABAC : Yes
Format settings, Reference frames : 5 frames
Codec ID : V_MPEG4/ISO/AVC
Duration : 1 h 9 min
Bit rate : 6 101 kb/s
Width : 1 280 pixels
Height : 544 pixels
Display aspect ratio : 2.35:1
Frame rate mode : Constant
Frame rate : 23.976 FPS
Color space : YUV
Chroma subsampling : 4:2:0
Bit depth : 8 bits
Scan type : Progressive
Bits/(Pixel*Frame) : 0.365
Stream size : 2.97 GiB (91%)
Writing library : x264 core 158 r2988 7817004
Encoding settings : cabac=1 / ref=5 / deblock=1:0:0 / analyse=0x3:0x133 / me=umh / subme=7 / psy=1 / psy_rd=1.00:0.00 / mixed_ref=1 / me_range=16 / chroma_me=1 / trellis=2 / 8x8dct=1 / cqm=0 / deadzone=21,11 / fast_pskip=0 / chroma_qp_offset=-2 / threads=12 / lookahead_threads=2 / sliced_threads=0 / nr=0 / decimate=1 / interlaced=0 / bluray_compat=0 / constrained_intra=0 / bframes=3 / b_pyramid=2 / b_adapt=1 / b_bias=0 / direct=3 / weightb=1 / open_gop=0 / weightp=2 / keyint=250 / keyint_min=23 / scenecut=40 / intra_refresh=0 / rc_lookahead=50 / rc=2pass / mbtree=1 / bitrate=6101 / ratetol=1.0 / qcomp=0.60 / qpmin=0 / qpmax=69 / qpstep=4 / cplxblur=20.0 / qblur=0.5 / ip_ratio=1.40 / aq=1:1.00
Language : Japanese
Default : Yes
Forced : No

Audio
ID : 2
Format : FLAC
Format/Info : Free Lossless Audio Codec
Codec ID : A_FLAC
Duration : 1 h 9 min
Bit rate mode : Variable
Bit rate : 631 kb/s
Channel(s) : 1 channel
Channel layout : C
Sampling rate : 48.0 kHz
Frame rate : 11.719 FPS (4096 SPF)
Bit depth : 24 bits
Compression mode : Lossless
Stream size : 315 MiB (9%)
Writing library : libFLAC 1.3.2 (UTC 2017-01-01)
Language : Japanese
Default : Yes
Forced : No

Text
ID : 3
Format : UTF-8
Codec ID : S_TEXT/UTF8
Codec ID/Info : UTF-8 Plain Text
Duration : 1 h 9 min
Bit rate : 26 b/s
Count of elements : 573
Stream size : 13.6 KiB (0%)
Language : English
Default : Yes
Forced : No

Menu
00:00:00.000 : en:Chapter 01
00:04:20.176 : en:Chapter 02
00:12:24.910 : en:Chapter 03
00:19:46.518 : en:Chapter 04
00:28:04.516 : en:Chapter 05
00:30:52.642 : en:Chapter 06
00:38:46.407 : en:Chapter 07
00:44:16.320 : en:Chapter 08
00:47:50.200 : en:Chapter 09
00:54:41.528 : en:Chapter 10
01:05:09.113 : en:Chapter 11





1 个附件 售价 大小 下载 时间

All.Monsters.Attack.1969.Criterion.INTERNAL.720p.BluRay.x264-JRP.torrent 0 金币 33.50K 266 次 2月前

#1楼
发帖时间:2020-03-20 13:06:14   |   回复数:2
911degrees
隐世仙人♂
非常感谢,谢谢分享
2月前 #2楼
jokingcheung
一代宗师
谢谢分享
2月前 #3楼
游客组