coor
一代宗师

[更 早] [日本] [科幻] [BD-1080P] 哥斯拉对黑多拉 Godzilla.vs.Hedorah.1971.Criterion.INTERNAL.1080p.BluRay.x264-JRP 8.75GB

-->

帖子完整标题:哥斯拉对黑多拉 Godzilla.vs.Hedorah.1971.Criterion.INTERNAL.1080p.BluRay.x264-JRP 8.75GB




◎译  名 哥斯拉对黑多拉 / Godzilla vs. Hedora
◎片  名 ゴジラ対ヘドラ
◎年  代 1971
◎产  地 日本
◎类  别 科幻 / 恐怖 / 音乐
◎语  言 日语
◎上映日期 1971-12-10
◎IMDb评分 6.1/10 from 4242 users
◎IMDb链接 https://www.imdb.com/title/tt0067148
◎豆瓣评分 6.5/10 from 194 users
◎豆瓣链接 https://movie.douban.com/subject/2063917/
◎片  长 Germany: 96 分钟
◎导  演 坂野义光
◎编  剧 馬淵薫 / 坂野義光
◎主  演 山内明 Akira Yamanouchi
      柴本俊夫
      川濑裕之 Hiroyuki Kawase
      吉田义夫


◎标  签 哥斯拉 | 日本 | 科幻 | 特摄 | 日本电影 | 1971 | 怪兽 | 电影

◎简  介

  由于环境严重的污染,使得蝌蚪受到突变而成为黑多拉,并且造成极大的破坏,人类几乎束手无策,而哥吉拉也费尽了极大的心思跟他战斗,最后人类与哥斯拉一同战胜了黑多拉。
Video
ID : 1
Format : AVC
Format/Info : Advanced Video Codec
Format profile : [email protected]
Format settings : CABAC / 5 Ref Frames
Format settings, CABAC : Yes
Format settings, Reference frames : 5 frames
Codec ID : V_MPEG4/ISO/AVC
Duration : 1 h 25 min
Bit rate : 14.0 Mb/s
Width : 1 920 pixels
Height : 816 pixels
Display aspect ratio : 2.35:1
Frame rate mode : Constant
Frame rate : 23.976 FPS
Color space : YUV
Chroma subsampling : 4:2:0
Bit depth : 8 bits
Scan type : Progressive
Bits/(Pixel*Frame) : 0.372
Stream size : 8.36 GiB (96%)
Writing library : x264 core 158 r2988 7817004
Encoding settings : cabac=1 / ref=5 / deblock=1:0:0 / analyse=0x3:0x133 / me=umh / subme=7 / psy=1 / psy_rd=1.00:0.00 / mixed_ref=1 / me_range=16 / chroma_me=1 / trellis=2 / 8x8dct=1 / cqm=0 / deadzone=21,11 / fast_pskip=0 / chroma_qp_offset=-2 / threads=12 / lookahead_threads=2 / sliced_threads=0 / nr=0 / decimate=1 / interlaced=0 / bluray_compat=0 / constrained_intra=0 / bframes=3 / b_pyramid=2 / b_adapt=1 / b_bias=0 / direct=3 / weightb=1 / open_gop=0 / weightp=2 / keyint=250 / keyint_min=23 / scenecut=40 / intra_refresh=0 / rc_lookahead=50 / rc=2pass / mbtree=1 / bitrate=13986 / ratetol=1.0 / qcomp=0.60 / qpmin=0 / qpmax=69 / qpstep=4 / cplxblur=20.0 / qblur=0.5 / ip_ratio=1.40 / aq=1:1.00
Language : Japanese
Default : Yes
Forced : No

Audio
ID : 2
Format : FLAC
Format/Info : Free Lossless Audio Codec
Codec ID : A_FLAC
Duration : 1 h 25 min
Bit rate mode : Variable
Bit rate : 644 kb/s
Channel(s) : 1 channel
Channel layout : C
Sampling rate : 48.0 kHz
Frame rate : 11.719 FPS (4096 SPF)
Bit depth : 24 bits
Compression mode : Lossless
Stream size : 394 MiB (4%)
Writing library : libFLAC 1.3.2 (UTC 2017-01-01)
Language : Japanese
Default : Yes
Forced : No

Text
ID : 3
Format : UTF-8
Codec ID : S_TEXT/UTF8
Codec ID/Info : UTF-8 Plain Text
Duration : 1 h 25 min
Bit rate : 22 b/s
Count of elements : 423
Stream size : 13.8 KiB (0%)
Language : English
Default : Yes
Forced : No

Menu
00:00:00.000 : en:Chapter 01
00:03:12.901 : en:Chapter 02
00:07:48.092 : en:Chapter 03
00:12:22.908 : en:Chapter 04
00:14:56.562 : en:Chapter 05
00:18:51.296 : en:Chapter 06
00:26:45.395 : en:Chapter 07
00:30:56.145 : en:Chapter 08
00:37:04.430 : en:Chapter 09
00:42:40.933 : en:Chapter 10
00:48:43.337 : en:Chapter 11
00:52:25.976 : en:Chapter 12
01:04:19.772 : en:Chapter 13
01:14:11.363 : en:Chapter 14





1 个附件 售价 大小 下载 时间

Godzilla.vs.Hedorah.1971.Criterion.INTERNAL.1080p.BluRay.x264-JRP.torrent 0 金币 44.44K 336 次 2月前

#1楼
发帖时间:2020-03-20 12:58:14   |   回复数:2
911degrees
隐世仙人♂
非常感谢,谢谢分享
2月前 #2楼
jokingcheung
一代宗师
谢谢分享
2月前 #3楼
游客组