coor
一代宗师

[2009] [欧美] [其他] [BD-1080P] 红白蓝噩梦 Nightmares.In.Red.White.And.Blue.2009.1080p.BluRay.x264.DTS-FGT 8.25GB

-->

帖子完整标题:红白蓝噩梦 Nightmares.In.Red.White.And.Blue.2009.1080p.BluRay.x264.DTS-FGT 8.25GB




◎译  名 红白蓝噩梦
◎片  名 Nightmares in Red, White and Blue
◎年  代 2009
◎产  地 美国
◎类  别 纪录片
◎语  言 英语
◎上映日期 2009-02
◎IMDb评分 7.2/10 from 2475 users
◎IMDb链接 https://www.imdb.com/title/tt1337117
◎豆瓣评分 0/10 from 0 users
◎豆瓣链接 https://movie.douban.com/subject/3541513/
◎导  演 Andrew Monument
◎主  演 Darren Lynn Bousman
      John Carpenter
      Roger Corman


◎标  签 纪录片 | 恐怖电影 | 美国 | 电影史 | Documentary | 恐怖片 | 2009 | HorrorFilm

◎简  介

  影片从1910年爱迪生的电影工作室拍摄的《弗兰肯斯坦》讲起,串起近百年的美国恐怖片发展史。为什么恐怖片能在美国取得如此巨大的成功?为什么美国观众如此热衷于血腥和暴力?影片邀请来诸位恐怖片大师,包括乔·丹特(《小魔怪》)、约翰·卡朋特(《万圣节》)、达伦·林恩·鲍斯曼(《电锯惊魂2》)等等,详述他们对于恐怖片的理解,混剪进各类经典恐怖镜头着实效果非常。
Video
ID : 1
Format : AVC
Format/Info : Advanced Video Codec
Format profile : [email protected]
Format settings : CABAC / 4 Ref Frames
Format settings, CABAC : Yes
Format settings, Reference frames : 4 frames
Codec ID : V_MPEG4/ISO/AVC
Duration : 1 h 36 min
Bit rate : 11.5 Mb/s
Width : 1 920 pixels
Height : 1 080 pixels
Display aspect ratio : 16:9
Frame rate mode : Constant
Frame rate : 23.976 (24000/1001) FPS
Color space : YUV
Chroma subsampling : 4:2:0
Bit depth : 8 bits
Scan type : Progressive
Bits/(Pixel*Frame) : 0.231
Stream size : 7.73 GiB (94%)
Title : Nightmares.In.Red.White.And.Blue.2009.1080p.BluRay.x264.DTS-FGT
Writing library : x264 core 148 r2748 97eaef2
Encoding settings : cabac=1 / ref=4 / deblock=1:-2:-2 / analyse=0x3:0x113 / me=umh / subme=9 / psy=1 / psy_rd=1.00:0.15 / mixed_ref=1 / me_range=16 / chroma_me=1 / trellis=2 / 8x8dct=1 / cqm=0 / deadzone=21,11 / fast_pskip=1 / chroma_qp_offset=-3 / threads=24 / lookahead_threads=3 / sliced_threads=0 / nr=0 / decimate=1 / interlaced=0 / bluray_compat=0 / constrained_intra=0 / bframes=3 / b_pyramid=2 / b_adapt=1 / b_bias=0 / direct=3 / weightb=1 / open_gop=0 / weightp=2 / keyint=250 / keyint_min=25 / scenecut=40 / intra_refresh=0 / rc_lookahead=50 / rc=2pass / mbtree=1 / bitrate=11500 / ratetol=1.0 / qcomp=0.60 / qpmin=0 / qpmax=69 / qpstep=4 / cplxblur=20.0 / qblur=0.5 / vbv_maxrate=31250 / vbv_bufsize=31250 / nal_hrd=none / filler=0 / ip_ratio=1.40 / aq=1:1.00
Language : English
Default : Yes
Forced : No

Audio
ID : 2
Format : DTS
Format/Info : Digital Theater Systems
Codec ID : A_DTS
Duration : 1 h 36 min
Bit rate mode : Constant
Bit rate : 768 kb/s
Channel(s) : 2 channels
Channel layout : L R
Sampling rate : 48.0 kHz
Frame rate : 93.750 FPS (512 SPF)
Bit depth : 16 bits
Compression mode : Lossy
Stream size : 529 MiB (6%)
Title : Nightmares.In.Red.White.And.Blue.2009.1080p.BluRay.x264.DTS-FGT
Language : English
Default : Yes
Forced : No

Menu
00:00:00.000 : en:Chapter 01
00:08:03.941 : en:Chapter 02
00:16:02.419 : en:Chapter 03
00:24:03.525 : en:Chapter 04
00:32:08.551 : en:Chapter 05
00:40:01.941 : en:Chapter 06
00:48:14.725 : en:Chapter 07
00:56:19.667 : en:Chapter 08
01:04:16.894 : en:Chapter 09
01:12:20.961 : en:Chapter 10
01:20:30.784 : en:Chapter 11
01:28:24.173 : en:Chapter 12





1 个附件 售价 大小 下载 时间

Nightmares.In.Red.White.And.Blue.2009.1080p.BluRay.x264.DTS-FGT.torrent 0 金币 41.80K 294 次 1月前

#1楼
发帖时间:2020-02-22 10:08:32   |   回复数:1
911degrees
隐世仙人♂
非常感谢,谢谢分享
1月前 #2楼
游客组