coor
一代宗师

[2013] [其他] [剧情] [BD-1080P] 十月十一月 Oktober.November.2013.GERMAN.1080p.BluRay.x264.DTS-FGT 10.01GB

-->

帖子完整标题:十月十一月 Oktober.November.2013.GERMAN.1080p.BluRay.x264.DTS-FGT 10.01GB




◎译  名 十月,十一月 / October November
◎片  名 Oktober, November
◎年  代 2013
◎产  地 奥地利
◎类  别 剧情
◎语  言 德语
◎上映日期 2013-09-08(多伦多电影节)
◎IMDb评分 6.6/10 from 389 users
◎IMDb链接 https://www.imdb.com/title/tt3121050
◎豆瓣评分 6.8/10 from 76 users
◎豆瓣链接 https://movie.douban.com/subject/23715329/
◎片  长 112分钟
◎导  演 格茨·斯皮尔曼 G?tz Spielmann
◎编  剧 格茨·斯皮尔曼 G?tz Spielmann
◎主  演 Nora von Waldst?tten
      乌苏拉·斯特劳斯 Ursula Strauss
      Peter Simonischek
      塞巴斯蒂安·科赫 Sebastian Koch
      Johannes Zeiler


◎标  签 奥地利 | 奥地利电影 | 家庭 | 剧情 | 德国 | 2013 | 格茨·斯皮尔曼 | G?tzSpielmann

◎简  介

  Successful actress returns to her family home in rural Austria to visit her ailing father and her sister who spent her whole life taking care of him and her family. The reunion is marked by jealousy, introspection and a secret.

◎获奖情况

  第61届圣塞巴斯蒂安国际电影节(2013)
  金贝壳奖(提名) 格茨·斯皮尔曼
Video
ID : 1
Format : AVC
Format/Info : Advanced Video Codec
Format profile : [email protected]
Format settings : CABAC / 4 Ref Frames
Format settings, CABAC : Yes
Format settings, Reference frames : 4 frames
Codec ID : V_MPEG4/ISO/AVC
Duration : 1 h 50 min
Bit rate : 11.5 Mb/s
Width : 1 920 pixels
Height : 1 036 pixels
Display aspect ratio : 1.85:1
Frame rate mode : Constant
Frame rate : 25.000 FPS
Color space : YUV
Chroma subsampling : 4:2:0
Bit depth : 8 bits
Scan type : Progressive
Bits/(Pixel*Frame) : 0.231
Stream size : 8.85 GiB (88%)
Title : Oktober.November.2013.GERMAN.1080p.BluRay.x264.DTS-FGT
Writing library : x264 core 148 r2748 97eaef2
Encoding settings : cabac=1 / ref=4 / deblock=1:-2:-2 / analyse=0x3:0x113 / me=umh / subme=9 / psy=1 / psy_rd=1.00:0.15 / mixed_ref=1 / me_range=16 / chroma_me=1 / trellis=2 / 8x8dct=1 / cqm=0 / deadzone=21,11 / fast_pskip=1 / chroma_qp_offset=-3 / threads=24 / lookahead_threads=3 / sliced_threads=0 / nr=0 / decimate=1 / interlaced=0 / bluray_compat=0 / constrained_intra=0 / bframes=3 / b_pyramid=2 / b_adapt=1 / b_bias=0 / direct=3 / weightb=1 / open_gop=0 / weightp=2 / keyint=250 / keyint_min=25 / scenecut=40 / intra_refresh=0 / rc_lookahead=50 / rc=2pass / mbtree=1 / bitrate=11500 / ratetol=1.0 / qcomp=0.60 / qpmin=0 / qpmax=69 / qpstep=4 / cplxblur=20.0 / qblur=0.5 / vbv_maxrate=31250 / vbv_bufsize=31250 / nal_hrd=none / filler=0 / ip_ratio=1.40 / aq=1:1.00
Language : German
Default : Yes
Forced : No

Audio
ID : 2
Format : DTS
Format/Info : Digital Theater Systems
Codec ID : A_DTS
Duration : 1 h 50 min
Bit rate mode : Constant
Bit rate : 1 509 kb/s
Channel(s) : 6 channels
Channel layout : C L R Ls Rs LFE
Sampling rate : 48.0 kHz
Frame rate : 93.750 FPS (512 SPF)
Bit depth : 16 bits
Compression mode : Lossy
Stream size : 1.16 GiB (12%)
Title : Oktober.November.2013.GERMAN.1080p.BluRay.x264.DTS-FGT
Language : German
Default : Yes
Forced : No

Text
ID : 3
Format : UTF-8
Codec ID : S_TEXT/UTF8
Codec ID/Info : UTF-8 Plain Text
Duration : 1 h 41 min
Bit rate : 46 b/s
Count of elements : 1108
Stream size : 34.2 KiB (0%)
Language : English
Default : Yes
Forced : No

Menu
00:00:00.000 : en:Chapter 01
00:08:51.760 : en:Chapter 02
00:19:12.400 : en:Chapter 03
00:27:14.800 : en:Chapter 04
00:35:26.880 : en:Chapter 05
00:46:53.520 : en:Chapter 06
00:55:02.040 : en:Chapter 07
01:03:54.520 : en:Chapter 08
01:12:52.920 : en:Chapter 09
01:22:55.360 : en:Chapter 10
01:31:42.560 : en:Chapter 11
01:40:27.000 : en:Chapter 12





1 个附件 售价 大小 下载 时间

Oktober.November.2013.GERMAN.1080p.BluRay.x264.DTS-FGT.torrent 0 金币 50.61K 588 次 1月前

#1楼
发帖时间:2020-02-22 10:06:18   |   回复数:1
911degrees
隐世仙人♂
非常感谢,谢谢分享
1月前 #2楼
游客组