coor
一代宗师

[2019] [欧美] [恐怖] [BD-1080P] 玩偶/夺命玩偶 Dolls.2019.1080p.BluRay.x264-JustWatch 6.56GB

-->

帖子完整标题:玩偶/夺命玩偶 Dolls.2019.1080p.BluRay.x264-JustWatch 6.56GB




◎译  名 玩偶 / 夺命玩偶
◎片  名 Dolls
◎年  代 2019
◎产  地 美国
◎类  别 恐怖
◎语  言 英语
◎上映日期 2019-07-02(美国)
◎IMDb评分 3.7/10 from 190 users
◎IMDb链接 https://www.imdb.com/title/tt9436204
◎豆瓣评分 3.8/10 from 147 users
◎豆瓣链接 https://movie.douban.com/subject/30407925/
◎片  长 85分钟
◎导  演 库利·卡尔文 Cuyle Carvin
◎编  剧 Justin Hawkins / Josh Hawkins / Jeff Miller
◎主  演 Thomas Downey
      迪·沃伦斯 Dee Wallace
      Trinity Simpson


◎标  签 恐怖 | 惊悚 | 美国 | 烂片 | 2019 | 灵异 | 美国电影 | 电影

◎简  介

  A struggling children's book author and his rebellious teenage daughter move into a house they've inherited and find mysterious dolls in the attic. The father and daughter soon learn that the dolls have a sinister - and deadly - past.
Video
ID : 1
Format : AVC
Format/Info : Advanced Video Codec
Format profile : [email protected]
Format settings : CABAC / 5 Ref Frames
Format settings, CABAC : Yes
Format settings, Reference frames : 5 frames
Codec ID : V_MPEG4/ISO/AVC
Duration : 1 h 24 min
Bit rate : 10.3 Mb/s
Width : 1 920 pixels
Height : 800 pixels
Display aspect ratio : 2.40:1
Frame rate mode : Constant
Frame rate : 23.976 (24000/1001) FPS
Color space : YUV
Chroma subsampling : 4:2:0
Bit depth : 8 bits
Scan type : Progressive
Bits/(Pixel*Frame) : 0.281
Stream size : 5.97 GiB (91%)
Writing library : x264 core 158 r2988 7817004
Encoding settings : cabac=1 / ref=5 / deblock=1:-2:-2 / analyse=0x3:0x113 / me=umh / subme=8 / psy=1 / psy_rd=1.00:0.00 / mixed_ref=1 / me_range=16 / chroma_me=1 / trellis=2 / 8x8dct=1 / cqm=0 / deadzone=21,11 / fast_pskip=0 / chroma_qp_offset=-2 / threads=25 / lookahead_threads=4 / sliced_threads=0 / nr=0 / decimate=1 / interlaced=0 / bluray_compat=0 / constrained_intra=0 / bframes=3 / b_pyramid=2 / b_adapt=2 / b_bias=0 / direct=3 / weightb=1 / open_gop=0 / weightp=2 / keyint=240 / keyint_min=24 / scenecut=40 / intra_refresh=0 / rc_lookahead=50 / rc=2pass / mbtree=1 / bitrate=10334 / ratetol=1.0 / qcomp=0.60 / qpmin=0 / qpmax=69 / qpstep=4 / cplxblur=20.0 / qblur=0.5 / ip_ratio=1.40 / aq=1:1.00
Language : English
Default : Yes
Forced : No

Audio
ID : 2
Format : DTS
Format/Info : Digital Theater Systems
Codec ID : A_DTS
Duration : 1 h 24 min
Bit rate mode : Constant
Bit rate : 768 kb/s
Channel(s) : 6 channels
Channel layout : C L R Ls Rs LFE
Sampling rate : 48.0 kHz
Frame rate : 93.750 FPS (512 SPF)
Bit depth : 24 bits
Compression mode : Lossy
Stream size : 464 MiB (7%)
Language : English
Default : Yes
Forced : No

Menu
00:00:00.000 : en:00:00:00.000
00:10:19.577 : en:00:10:19.577
00:19:54.235 : en:00:19:54.235
00:29:13.585 : en:00:29:13.585
00:39:09.347 : en:00:39:09.347
00:46:43.467 : en:00:46:43.467
00:54:53.665 : en:00:54:53.665
01:04:19.898 : en:01:04:19.898
01:11:33.706 : en:01:11:33.706
01:17:56.839 : en:01:17:56.839





1 个附件 售价 大小 下载 时间

Dolls.2019.1080p.BluRay.x264-JustWatch.torrent 0 金币 33.47K 427 次 1月前

#1楼
发帖时间:2020-02-22 09:58:16   |   回复数:2
liyouchai
隐世仙人♂
谢谢楼主分享资源
1月前 #2楼
911degrees
隐世仙人♂
非常感谢,谢谢分享
1月前 #3楼
游客组