coor
一代宗师

[2019] [欧美] [剧情] [BD-720P] 电磁脉冲 Radioflash.2019.720p.BluRay.x264-YOL0W 4.37GB

-->

帖子完整标题:电磁脉冲 Radioflash.2019.720p.BluRay.x264-YOL0W 4.37GB




◎译  名 电磁脉冲
◎片  名 Radioflash
◎年  代 2019
◎产  地 美国
◎类  别 剧情 / 惊悚
◎语  言 英语
◎上映日期 2019-11-15(美国)
◎IMDb评分 4.6/10 from 603 users
◎IMDb链接 https://www.imdb.com/title/tt7288408
◎豆瓣评分 0/10 from 0 users
◎豆瓣链接 https://movie.douban.com/subject/34859221/
◎导  演 Ben McPherson
◎编  剧 Ben McPherson
◎主  演 布莱特顿·沙比诺 Brighton Sharbino
      多米尼克·莫纳汉 Dominic Monaghan
      威尔·帕顿 Will Patton


◎简  介

  When a nuclear device causes an electromagnetic pulse that kills power to more than 200 million people, a teenage girl must help lead her family to survival in a dark new world.
Video
ID : 1
Format : AVC
Format/Info : Advanced Video Codec
Format profile : [email protected]
Format settings : CABAC / 8 Ref Frames
Format settings, CABAC : Yes
Format settings, Reference frames : 8 frames
Codec ID : V_MPEG4/ISO/AVC
Duration : 1 h 42 min
Bit rate : 4 585 kb/s
Width : 1 280 pixels
Height : 536 pixels
Display aspect ratio : 2.40:1
Frame rate mode : Constant
Frame rate : 23.976 (24000/1001) FPS
Color space : YUV
Chroma subsampling : 4:2:0
Bit depth : 8 bits
Scan type : Progressive
Bits/(Pixel*Frame) : 0.279
Stream size : 3.28 GiB (75%)
Writing library : x264 core 159 r2991 1771b55
Encoding settings : cabac=1 / ref=8 / deblock=1:-3:-3 / analyse=0x3:0x133 / me=umh / subme=8 / psy=1 / psy_rd=1.00:0.00 / mixed_ref=1 / me_range=16 / chroma_me=1 / trellis=2 / 8x8dct=1 / cqm=0 / deadzone=21,11 / fast_pskip=0 / chroma_qp_offset=-2 / threads=17 / lookahead_threads=2 / sliced_threads=0 / nr=0 / decimate=1 / interlaced=0 / bluray_compat=0 / constrained_intra=0 / bframes=3 / b_pyramid=2 / b_adapt=2 / b_bias=0 / direct=3 / weightb=1 / open_gop=0 / weightp=2 / keyint=240 / keyint_min=23 / scenecut=40 / intra_refresh=0 / rc_lookahead=60 / rc=2pass / mbtree=1 / bitrate=4585 / ratetol=1.0 / qcomp=0.60 / qpmin=0 / qpmax=69 / qpstep=4 / cplxblur=20.0 / qblur=0.5 / ip_ratio=1.40 / aq=1:1.00
Language : English
Default : Yes
Forced : No
Color range : Limited
Matrix coefficients : BT.709

Audio
ID : 2
Format : DTS
Format/Info : Digital Theater Systems
Codec ID : A_DTS
Duration : 1 h 42 min
Bit rate mode : Constant
Bit rate : 1 509 kb/s
Channel(s) : 6 channels
Channel layout : C L R Ls Rs LFE
Sampling rate : 48.0 kHz
Frame rate : 93.750 FPS (512 SPF)
Bit depth : 24 bits
Compression mode : Lossy
Stream size : 1.08 GiB (25%)
Title : English
Language : English
Default : Yes
Forced : No

Menu
00:00:00.000 : en:Chapter 01
00:07:23.735 : en:Chapter 02
00:14:37.085 : en:Chapter 03
00:24:35.140 : en:Chapter 04
00:33:04.900 : en:Chapter 05
00:39:34.455 : en:Chapter 06
00:47:51.869 : en:Chapter 07
00:57:27.235 : en:Chapter 08
01:06:22.145 : en:Chapter 09
01:14:36.389 : en:Chapter 10
01:23:04.521 : en:Chapter 11
01:30:34.095 : en:Chapter 12





1 个附件 售价 大小 下载 时间

Radioflash.2019.720p.BluRay.x264-YOL0W.torrent 0 金币 44.47K 483 次 1月前

#1楼
发帖时间:2020-02-22 09:50:16   |   回复数:2
911degrees
隐世仙人♂
非常感谢,谢谢分享
1月前 #2楼
chulps
一代宗师
~ 珍惜+支持 ~
1月前 #3楼
游客组