coor
一代宗师

[更 早] [其他] [动作] [BD-1080P] 大醉俠 Come.Drink.With.Me.1966.CHINESE.1080p.BluRay.x264.DTS-FGT 9.62GB

-->

帖子完整标题:大醉俠 Come.Drink.With.Me.1966.CHINESE.1080p.BluRay.x264.DTS-FGT 9.62GB




◎译  名 大醉侠 / Come Drink with Me / 醉侠
◎片  名 大醉俠
◎年  代 1966
◎产  地 中国香港
◎类  别 动作 / 武侠 / 古装
◎语  言 汉语普通话
◎上映日期 1966-04-07(中国香港)
◎IMDb评分 6.9/10 from 3430 users
◎IMDb链接 https://www.imdb.com/title/tt0059079
◎豆瓣评分 7.5/10 from 6280 users
◎豆瓣链接 https://movie.douban.com/subject/1301946/
◎片  长 95分钟
◎导  演 胡金铨 King Hu
◎编  剧 胡金铨 King Hu / 丁善玺 Shan-hsi Ting
◎主  演 郑佩佩 Pei-pei Cheng
      岳华 Hua Yueh
      杨志卿 Chih-Ching Yang
      陈鸿烈 Hung Lieh Chen
      韩英杰 Ying-Chieh Han
      沈涝
      林健全
      谷峰 Feng Ku
      李允中 Yunzhong Li


◎标  签 胡金铨 | 香港 | 武侠 | 邵氏 | 郑佩佩 | 香港电影 | 1966 | 动作

◎简  介

  江湖败类“索命五虎”作恶多端,杀人如麻。其老大被两江总督张大人俘获,不日问斩。其余四虎铤而走险,劫走张大人之子张步青以作要挟。张步青之妹张熙燕(郑佩佩 饰)武艺高强,人送绰号“金燕子”。为救兄长,张熙燕独闯虎穴,然恶徒狡猾非常,金燕子救兄不成,还险些丢掉性命。关键时刻,幸得隐于江湖的侠客范大悲(岳华 饰)出手搭救。
  范大悲曾为某寺院修行者,其师兄了空大师为夺掌门人之位杀害师傅,师傅临死前将丐帮掌门人信物交给范大悲。念及师兄弟之情,范从此隐姓埋名,以醉猫的诨号浪荡江湖。此次索命五虎与了空大师联手,势要将金燕子和范大悲斩草除根……
Video
ID : 1
Format : AVC
Format/Info : Advanced Video Codec
Format profile : [email protected]
Format settings : CABAC / 4 Ref Frames
Format settings, CABAC : Yes
Format settings, Reference frames : 4 frames
Codec ID : V_MPEG4/ISO/AVC
Duration : 1 h 34 min
Bit rate : 11.5 Mb/s
Width : 1 916 pixels
Height : 816 pixels
Display aspect ratio : 2.35:1
Frame rate mode : Constant
Frame rate : 23.976 (24000/1001) FPS
Color space : YUV
Chroma subsampling : 4:2:0
Bit depth : 8 bits
Scan type : Progressive
Bits/(Pixel*Frame) : 0.307
Stream size : 7.61 GiB (79%)
Title : Come.Drink.With.Me.1966.CHINESE.1080p.BluRay.x264.DTS-FGT
Writing library : x264 core 148 r2748 97eaef2
Encoding settings : cabac=1 / ref=4 / deblock=1:-2:-2 / analyse=0x3:0x113 / me=umh / subme=9 / psy=1 / psy_rd=1.00:0.15 / mixed_ref=1 / me_range=16 / chroma_me=1 / trellis=2 / 8x8dct=1 / cqm=0 / deadzone=21,11 / fast_pskip=1 / chroma_qp_offset=-3 / threads=24 / lookahead_threads=3 / sliced_threads=0 / nr=0 / decimate=1 / interlaced=0 / bluray_compat=0 / constrained_intra=0 / bframes=3 / b_pyramid=2 / b_adapt=1 / b_bias=0 / direct=3 / weightb=1 / open_gop=0 / weightp=2 / keyint=250 / keyint_min=25 / scenecut=40 / intra_refresh=0 / rc_lookahead=50 / rc=2pass / mbtree=1 / bitrate=11500 / ratetol=1.0 / qcomp=0.60 / qpmin=0 / qpmax=69 / qpstep=4 / cplxblur=20.0 / qblur=0.5 / vbv_maxrate=31250 / vbv_bufsize=31250 / nal_hrd=none / filler=0 / ip_ratio=1.40 / aq=1:1.00
Language : English
Default : Yes
Forced : No

Audio #1
ID : 2
Format : DTS
Format/Info : Digital Theater Systems
Codec ID : A_DTS
Duration : 1 h 34 min
Bit rate mode : Constant
Bit rate : 1 509 kb/s
Channel(s) : 2 channels
Channel layout : L R
Sampling rate : 48.0 kHz
Frame rate : 93.750 FPS (512 SPF)
Bit depth : 16 bits
Compression mode : Lossy
Stream size : 1 023 MiB (10%)
Title : Come.Drink.With.Me.1966.CHINESE.1080p.BluRay.x264.DTS-FGT
Language : Chinese
Default : Yes
Forced : No

Audio #2
ID : 3
Format : DTS
Format/Info : Digital Theater Systems
Codec ID : A_DTS
Duration : 1 h 34 min
Bit rate mode : Constant
Bit rate : 1 509 kb/s
Channel(s) : 2 channels
Channel layout : L R
Sampling rate : 48.0 kHz
Frame rate : 93.750 FPS (512 SPF)
Bit depth : 16 bits
Compression mode : Lossy
Stream size : 1 023 MiB (10%)
Title : Come.Drink.With.Me.1966.CHINESE.1080p.BluRay.x264.DTS-FGT
Language : English
Default : No
Forced : No

Text
ID : 4
Format : UTF-8
Codec ID : S_TEXT/UTF8
Codec ID/Info : UTF-8 Plain Text
Duration : 1 h 33 min
Bit rate : 30 b/s
Count of elements : 679
Stream size : 21.0 KiB (0%)
Language : English
Default : Yes
Forced : No

Menu
00:00:00.000 : en:Chapter 01
00:01:34.511 : en:Chapter 02
00:08:28.383 : en:Chapter 03
00:20:50.249 : en:Chapter 04
00:33:08.778 : en:Chapter 05
00:46:30.663 : en:Chapter 06
00:57:52.052 : en:Chapter 07
01:08:40.658 : en:Chapter 08
01:21:20.250 : en:Chapter 09
01:29:45.213 : en:Chapter 10





1 个附件 售价 大小 下载 时间

Come.Drink.With.Me.1966.CHINESE.1080p.BluRay.x264.DTS-FGT.torrent 0 金币 48.62K 1092 次 1月前

#1楼
发帖时间:2020-02-21 08:26:29   |   回复数:3
911degrees
隐世仙人♂
非常感谢,谢谢分享
1月前 #2楼
jokingcheung
一代宗师
谢谢分享
1月前 #3楼
liyouchai
隐世仙人♂
谢谢楼主分享资源
1月前 #4楼
游客组