coor
一代宗师

[2019] [欧美] [喜剧] [BD-Remux] 安全空间 After.Class.2019.1080p.BluRay.REMUX.AVC.DTS-HD.MA.5.1-FGT 21.09GB

-->

帖子完整标题:安全空间 After.Class.2019.1080p.BluRay.REMUX.AVC.DTS-HD.MA.5.1-FGT 21.09GB




◎译  名 安全空间 / after class
◎片  名 Safe Spaces
◎年  代 2019
◎产  地 美国
◎类  别 喜剧
◎语  言 英语
◎上映日期 2019-04-29(美国)
◎IMDb评分 5.5/10 from 206 users
◎IMDb链接 https://www.imdb.com/title/tt7187768
◎豆瓣评分 0/10 from 0 users
◎豆瓣链接 https://movie.douban.com/subject/33421203/
◎片  长 94分钟
◎导  演 丹尼尔·谢克特 Daniel Schechter
◎编  剧 丹尼尔·谢克特 Daniel Schechter
◎主  演 贾斯汀·朗 Justin Long
      法兰·德瑞雪 Fran Drescher
      理查德·希夫 Richard Schiff
      凯特·贝兰特 Kate Berlant
      贝琦·安·贝克 Becky Ann Baker
      林恩·科恩 Lynn Cohen
      卡姆鲁斯·约翰逊 Camrus Johnson
      bryce romer
      tyler wladis
      达娜·埃斯科尔森 Dana Eskelson
      萨马拉·查卡拉蒂 Samrat Chakrabarti
      silvia morigi
      emily ferguson


◎标  签 美国 | 剧情 | 2010s

◎简  介

  A NYC professor spends a week re-connecting with his family while defending his reputation over qiwan.cc controversial behavior at his college.
Video
ID : 1
Format : AVC
Format/Info : Advanced Video Codec
Format profile : [email protected]
Format settings : CABAC / 4 Ref Frames
Format settings, CABAC : Yes
Format settings, Reference frames : 4 frames
Codec ID : V_MPEG4/ISO/AVC
Duration : 1 h 33 min
Bit rate mode : Variable
Bit rate : 29.1 Mb/s
Maximum bit rate : 35.0 Mb/s
Width : 1 920 pixels
Height : 1 080 pixels
Display aspect ratio : 16:9
Frame rate mode : Constant
Frame rate : 23.976 (24000/1001) FPS
Color space : YUV
Chroma subsampling : 4:2:0
Bit depth : 8 bits
Scan type : Progressive
Bits/(Pixel*Frame) : 0.586
Stream size : 19.0 GiB (90%)
Title : After.Class.2019.1080p.BluRay.REMUX.AVC.DTS-HD.MA.5.1-FGT
Language : English
Default : No
Forced : No
Color range : Limited
Color primaries : BT.709
Transfer characteristics : BT.709
Matrix coefficients : BT.709

Audio
ID : 2
Format : DTS XLL
Format/Info : Digital Theater Systems
Commercial name : DTS-HD Master Audio
Codec ID : A_DTS
Duration : 1 h 33 min
Bit rate mode : Variable
Bit rate : 3 133 kb/s
Channel(s) : 6 channels
Channel layout : C L R Ls Rs LFE
Sampling rate : 48.0 kHz
Frame rate : 93.750 FPS (512 SPF)
Bit depth : 24 bits
Compression mode : Lossless
Stream size : 2.05 GiB (10%)
Title : After.Class.2019.1080p.BluRay.REMUX.AVC.DTS-HD.MA.5.1-FGT
Language : English
Default : Yes
Forced : No

Text #1
ID : 3
Format : UTF-8
Codec ID : S_TEXT/UTF8
Codec ID/Info : UTF-8 Plain Text
Duration : 1 h 30 min
Bit rate : 120 b/s
Count of elements : 1914
Stream size : 80.2 KiB (0%)
Title : English-SRT
Language : English
Default : Yes
Forced : No

Text #2
ID : 4
Format : PGS
Muxing mode : zlib
Codec ID : S_HDMV/PGS
Codec ID/Info : Picture based subtitle format used on BDs/HD-DVDs
Duration : 1 h 31 min
Bit rate : 59.9 kb/s
Count of elements : 3976
Stream size : 39.3 MiB (0%)
Language : English
Default : No
Forced : No

Menu
00:00:00.000 : en:Chapter 01
00:10:32.673 : en:Chapter 02
00:19:27.916 : en:Chapter 03
00:31:05.530 : en:Chapter 04
00:40:47.194 : en:Chapter 05
00:50:55.552 : en:Chapter 06
01:01:04.661 : en:Chapter 07
01:09:42.178 : en:Chapter 08
01:20:50.762 : en:Chapter 09
01:29:57.058 : en:Chapter 10





1 个附件 售价 大小 下载 时间

After.Class.2019.1080p.BluRay.REMUX.AVC.DTS-HD.MA.5.1-FGT.torrent 0 金币 53.27K 329 次 7月前

#1楼
发帖时间:2020-02-14 20:56:09   |   回复数:1
911degrees
隐世仙人♂
非常感谢,谢谢分享
7月前 #2楼
游客组