coor
一代宗师

[2019] [欧美] [喜剧] [BD-Remux] 掠夺者 Snatchers.2019.1080p.BluRay.REMUX.AVC.DTS-HD.MA.5.1-FGT 13.01GB

-->

帖子完整标题:掠夺者 Snatchers.2019.1080p.BluRay.REMUX.AVC.DTS-HD.MA.5.1-FGT 13.01GB




◎译  名 掠夺者
◎片  名 Snatchers
◎年  代 2019
◎产  地 美国
◎类  别 喜剧 / 科幻 / 恐怖
◎语  言 英语
◎上映日期 2019-10-08(西班牙)
◎IMDb评分 5.3/10 from 931 users
◎IMDb链接 https://www.imdb.com/title/tt10009030
◎豆瓣评分 4.2/10 from 386 users
◎豆瓣链接 https://movie.douban.com/subject/30466958/
◎片  长 96分钟
◎导  演 斯蒂芬·斯达思 Stephen Cedars / 本吉·克莱曼 Benji Kleiman
◎编  剧 斯蒂芬·斯达思 Stephen Cedars / 本吉·克莱曼 Benji Kleiman / Scott Yacyshyn
◎主  演 玛丽·纳皮 Mary Nepi
      加布里埃尔·伊利斯 Gabrielle Elyse
      奥斯汀·法瑞伯格 Austin Fryberger
      J·J·诺兰 J.J. Nolan
      尼克·戈麦斯 Nick Gomez
      阿什丽·阿戈塔 Ashley Argota


◎标  签 喜剧 | 恐怖 | 美国 | 2019 | 科幻 | 搞笑 | 黑色幽默 | 魔幻

◎简  介

  Sara破处后的第二天醒来发现自己怀孕了,而且已经怀了9个月,更可怕的是她怀的居然是个外星人。
Video
ID : 1
Format : AVC
Format/Info : Advanced Video Codec
Format profile : [email protected]
Format settings : CABAC / 4 Ref Frames
Format settings, CABAC : Yes
Format settings, Reference frames : 4 frames
Codec ID : V_MPEG4/ISO/AVC
Duration : 1 h 36 min
Bit rate mode : Variable
Bit rate : 14.9 Mb/s
Maximum bit rate : 38.0 Mb/s
Width : 1 920 pixels
Height : 1 080 pixels
Display aspect ratio : 16:9
Frame rate mode : Constant
Frame rate : 23.976 (24000/1001) FPS
Color space : YUV
Chroma subsampling : 4:2:0
Bit depth : 8 bits
Scan type : Progressive
Bits/(Pixel*Frame) : 0.299
Stream size : 10.1 GiB (78%)
Title : Snatchers.2019.1080p.BluRay.REMUX.AVC.DTS-HD.MA.5.1-FGT
Language : English
Default : No
Forced : No

Audio #1
ID : 2
Format : DTS XLL
Format/Info : Digital Theater Systems
Commercial name : DTS-HD Master Audio
Codec ID : A_DTS
Duration : 1 h 36 min
Bit rate mode : Variable
Bit rate : 2 779 kb/s
Channel(s) : 6 channels
Channel layout : C L R Ls Rs LFE
Sampling rate : 48.0 kHz
Frame rate : 93.750 FPS (512 SPF)
Bit depth : 24 bits
Compression mode : Lossless
Stream size : 1.88 GiB (14%)
Title : Snatchers.2019.1080p.BluRay.REMUX.AVC.DTS-HD.MA.5.1-FGT
Language : English
Default : Yes
Forced : No

Audio #2
ID : 3
Format : AC-3
Format/Info : Audio Coding 3
Commercial name : Dolby Digital
Codec ID : A_AC3
Duration : 1 h 36 min
Bit rate mode : Constant
Bit rate : 640 kb/s
Channel(s) : 6 channels
Channel layout : L R C LFE Ls Rs
Sampling rate : 48.0 kHz
Frame rate : 31.250 FPS (1536 SPF)
Bit depth : 16 bits
Compression mode : Lossy
Stream size : 444 MiB (3%)
Title : Snatchers.2019.1080p.BluRay.REMUX.AVC.DTS-HD.MA.5.1-FGT
Language : French
Service kind : Complete Main
Default : No
Forced : No

Audio #3
ID : 4
Format : AC-3
Format/Info : Audio Coding 3
Commercial name : Dolby Digital
Codec ID : A_AC3
Duration : 1 h 36 min
Bit rate mode : Constant
Bit rate : 640 kb/s
Channel(s) : 6 channels
Channel layout : L R C LFE Ls Rs
Sampling rate : 48.0 kHz
Frame rate : 31.250 FPS (1536 SPF)
Bit depth : 16 bits
Compression mode : Lossy
Stream size : 444 MiB (3%)
Title : Snatchers.2019.1080p.BluRay.REMUX.AVC.DTS-HD.MA.5.1-FGT
Language : Spanish
Service kind : Complete Main
Default : No
Forced : No

Audio #4
ID : 5
Format : AC-3
Format/Info : Audio Coding 3
Commercial name : Dolby Digital
Codec ID : A_AC3
Duration : 1 h 36 min
Bit rate mode : Constant
Bit rate : 192 kb/s
Channel(s) : 2 channels
Channel layout : L R
Sampling rate : 48.0 kHz
Frame rate : 31.250 FPS (1536 SPF)
Bit depth : 16 bits
Compression mode : Lossy
Stream size : 133 MiB (1%)
Title : Snatchers.2019.1080p.BluRay.REMUX.AVC.DTS-HD.MA.5.1-FGT
Language : English
Service kind : Complete Main
Default : No
Forced : No

Text #1
ID : 6
Format : UTF-8
Codec ID : S_TEXT/UTF8
Codec ID/Info : UTF-8 Plain Text
Duration : 1 h 32 min
Bit rate : 49 b/s
Count of elements : 1123
Stream size : 33.8 KiB (0%)
Title : English-SRT
Language : English
Default : Yes
Forced : No

Text #2
ID : 7
Format : PGS
Muxing mode : zlib
Codec ID : S_HDMV/PGS
Codec ID/Info : Picture based subtitle format used on BDs/HD-DVDs
Duration : 1 h 36 min
Bit rate : 34.8 kb/s
Count of elements : 2914
Stream size : 24.0 MiB (0%)
Title : English-PGS
Language : English
Default : No
Forced : No

Text #3
ID : 8
Format : PGS
Muxing mode : zlib
Codec ID : S_HDMV/PGS
Codec ID/Info : Picture based subtitle format used on BDs/HD-DVDs
Duration : 1 h 35 min
Bit rate : 27.9 kb/s
Count of elements : 2128
Stream size : 19.1 MiB (0%)
Title : French-PGS
Language : French
Default : No
Forced : No

Text #4
ID : 9
Format : PGS
Muxing mode : zlib
Codec ID : S_HDMV/PGS
Codec ID/Info : Picture based subtitle format used on BDs/HD-DVDs
Duration : 1 h 35 min
Bit rate : 27.1 kb/s
Count of elements : 2142
Stream size : 18.5 MiB (0%)
Title : Spanish-PGS
Language : Spanish
Default : No
Forced : No

Text #5
ID : 10
Format : PGS
Muxing mode : zlib
Codec ID : S_HDMV/PGS
Codec ID/Info : Picture based subtitle format used on BDs/HD-DVDs
Duration : 1 h 35 min
Bit rate : 25.3 kb/s
Count of elements : 2050
Stream size : 17.3 MiB (0%)
Title : Danish-PGS
Language : Danish
Default : No
Forced : No

Text #6
ID : 11
Format : PGS
Muxing mode : zlib
Codec ID : S_HDMV/PGS
Codec ID/Info : Picture based subtitle format used on BDs/HD-DVDs
Duration : 1 h 35 min
Bit rate : 27.4 kb/s
Count of elements : 2142
Stream size : 18.7 MiB (0%)
Title : Finnish-PGS
Language : Finnish
Default : No
Forced : No

Text #7
ID : 12
Format : PGS
Muxing mode : zlib
Codec ID : S_HDMV/PGS
Codec ID/Info : Picture based subtitle format used on BDs/HD-DVDs
Duration : 1 h 35 min
Bit rate : 25.9 kb/s
Count of elements : 2118
Stream size : 17.7 MiB (0%)
Title : Norwegian-PGS
Language : Norwegian
Default : No
Forced : No

Text #8
ID : 13
Format : PGS
Muxing mode : zlib
Codec ID : S_HDMV/PGS
Codec ID/Info : Picture based subtitle format used on BDs/HD-DVDs
Duration : 1 h 35 min
Bit rate : 26.7 kb/s
Count of elements : 2114
Stream size : 18.3 MiB (0%)
Title : Swedish-PGS
Language : Swedish
Default : No
Forced : No

Text #9
ID : 14
Format : PGS
Muxing mode : zlib
Codec ID : S_HDMV/PGS
Codec ID/Info : Picture based subtitle format used on BDs/HD-DVDs
Duration : 1 h 32 min
Bit rate : 797 b/s
Count of elements : 56
Stream size : 540 KiB (0%)
Title : French-FORCED-PGS
Language : French
Default : No
Forced : No

Text #10
ID : 15
Format : PGS
Muxing mode : zlib
Codec ID : S_HDMV/PGS
Codec ID/Info : Picture based subtitle format used on BDs/HD-DVDs
Duration : 1 h 24 min
Bit rate : 469 b/s
Count of elements : 26
Stream size : 289 KiB (0%)
Title : Spanish-FORCED-PGS
Language : Spanish
Default : No
Forced : No

Menu
00:00:00.000 : en:Chapter 01
00:10:05.521 : en:Chapter 02
00:19:35.132 : en:Chapter 03
00:28:34.212 : en:Chapter 04
00:36:23.639 : en:Chapter 05
00:45:41.447 : en:Chapter 06
00:55:28.366 : en:Chapter 07
01:04:53.472 : en:Chapter 08
01:15:18.680 : en:Chapter 09
01:26:54.292 : en:Chapter 10
01:34:14.482 : en:Chapter 11





1 个附件 售价 大小 下载 时间

Snatchers.2019.1080p.BluRay.REMUX.AVC.DTS-HD.MA.5.1-FGT.torrent 0 金币 65.57K 490 次 7月前

#1楼
发帖时间:2020-02-14 20:48:07   |   回复数:1
911degrees
隐世仙人♂
非常感谢,谢谢分享
7月前 #2楼
游客组