coor
一代宗师

[2018] [其他] [剧情] [BD-Remux] 提托与鸟儿们 Tito.and.the.Birds.2018.PORTUGUESE.1080p.BluRay.REMUX.AVC.DTS-HD.MA.5.1-F

-->

帖子完整标题:提托与鸟儿们 Tito.and.the.Birds.2018.PORTUGUESE.1080p.BluRay.REMUX.AVC.DTS-HD.MA.5.1-FGT 18.01GB




◎译  名 提托与鸟儿们 / Tito and the Birds / Tito不再恐懼鳥(港) / 提托的鸟儿们
◎片  名 Tito e os Pássaros
◎年  代 2018
◎产  地 巴西
◎类  别 剧情 / 动作 / 动画
◎语  言 葡萄牙语
◎上映日期 2018-06-11(安锡动画电影节)
◎IMDb评分 6.7/10 from 278 users
◎IMDb链接 https://www.imdb.com/title/tt8327492
◎豆瓣评分 6.8/10 from 79 users
◎豆瓣链接 https://movie.douban.com/subject/30309270/
◎片  长 73分钟
◎导  演 Gustavo Steinberg / Gabriel Bitar / André Catoto
◎编  剧 Eduardo Benaim / Gustavo Steinberg
◎主  演 马修斯·纳克加勒 Matheus Nachtergaele
      丹妮斯·弗拉加 Denise Fraga
      马德伍斯·索兰诺 Mateus Solano
      Otávio Augusto


◎标  签 动画 | 巴西 | 2018 | 动画长片 | TIFF | B巴西 | 巴西电影 | 巴西动画

◎简  介

  提托是个害羞的十岁男孩,和母亲住在一起。突然间,一种闻所未闻的流行病开始蔓延——人们只要感到恐惧,就会生病。疫情蔓延全城,社会陷入恐慌之中,传染病愈发肆虐。提托很快发现这种病的治疗方法与他失踪的父亲对鸟叫声的研究有关。他和朋友们——坚强无畏的莎拉、朴实而谦逊的布伊、傲慢却乐于助人的富家子弟提奥以及他的跟班——开始了一段拯救世界的旅程。提托对于解药的研究过程也是寻找失踪的父亲和个人身份的过程,而提托与朋友、家人及对手之间的关系也是影片中的吸睛之处。

◎获奖情况

  第46届动画安妮奖(2019)
  最佳独立动画长片(提名)
Video
ID : 1
Format : AVC
Format/Info : Advanced Video Codec
Format profile : [email protected]
Format settings : CABAC / 4 Ref Frames
Format settings, CABAC : Yes
Format settings, Reference frames : 4 frames
Codec ID : V_MPEG4/ISO/AVC
Duration : 1 h 13 min
Bit rate mode : Variable
Bit rate : 26.9 Mb/s
Maximum bit rate : 35.0 Mb/s
Width : 1 920 pixels
Height : 1 080 pixels
Display aspect ratio : 16:9
Frame rate mode : Constant
Frame rate : 24.000 FPS
Color space : YUV
Chroma subsampling : 4:2:0
Bit depth : 8 bits
Scan type : Progressive
Bits/(Pixel*Frame) : 0.540
Stream size : 13.8 GiB (77%)
Title : Tito.and.the.Birds.2018.PORTUGUESE.1080p.BluRay.REMUX.AVC.DTS-HD.MA.5.1-FGT
Language : English
Default : No
Forced : No

Audio #1
ID : 2
Format : DTS XLL
Format/Info : Digital Theater Systems
Commercial name : DTS-HD Master Audio
Codec ID : A_DTS
Duration : 1 h 13 min
Bit rate mode : Variable
Bit rate : 4 066 kb/s
Channel(s) : 6 channels
Channel layout : C L R Ls Rs LFE
Sampling rate : 48.0 kHz
Frame rate : 93.750 FPS (512 SPF)
Bit depth : 24 bits
Compression mode : Lossless
Stream size : 2.09 GiB (12%)
Title : Tito.and.the.Birds.2018.PORTUGUESE.1080p.BluRay.REMUX.AVC.DTS-HD.MA.5.1-FGT
Language : Portuguese
Default : Yes
Forced : No

Audio #2
ID : 3
Format : DTS XLL
Format/Info : Digital Theater Systems
Commercial name : DTS-HD Master Audio
Codec ID : A_DTS
Duration : 1 h 13 min
Bit rate mode : Variable
Bit rate : 4 121 kb/s
Channel(s) : 6 channels
Channel layout : C L R Ls Rs LFE
Sampling rate : 48.0 kHz
Frame rate : 93.750 FPS (512 SPF)
Bit depth : 24 bits
Compression mode : Lossless
Stream size : 2.11 GiB (12%)
Title : Tito.and.the.Birds.2018.PORTUGUESE.1080p.BluRay.REMUX.AVC.DTS-HD.MA.5.1-FGT
Language : English
Default : No
Forced : No

Text #1
ID : 4
Format : UTF-8
Codec ID : S_TEXT/UTF8
Codec ID/Info : UTF-8 Plain Text
Duration : 1 h 7 min
Bit rate : 48 b/s
Count of elements : 653
Stream size : 23.8 KiB (0%)
Title : English-FOR.Portuguese-SRT
Language : English
Default : Yes
Forced : No

Text #2
ID : 5
Format : UTF-8
Codec ID : S_TEXT/UTF8
Codec ID/Info : UTF-8 Plain Text
Duration : 1 h 7 min
Bit rate : 60 b/s
Count of elements : 823
Stream size : 29.8 KiB (0%)
Title : English-FOR.English.Dub-PGS
Language : English
Default : No
Forced : No

Text #3
ID : 6
Format : UTF-8
Codec ID : S_TEXT/UTF8
Codec ID/Info : UTF-8 Plain Text
Duration : 1 h 8 min
Bit rate : 66 b/s
Count of elements : 973
Stream size : 33.0 KiB (0%)
Title : English-FOR.English.Dub.SDH-PGS
Language : English
Default : No
Forced : No

Text #4
ID : 7
Format : PGS
Muxing mode : zlib
Codec ID : S_HDMV/PGS
Codec ID/Info : Picture based subtitle format used on BDs/HD-DVDs
Duration : 6 s 271 ms
Bit rate : 34.2 kb/s
Count of elements : 2
Stream size : 26.2 KiB (0%)
Title : English-FORCED-PGS
Language : English
Default : No
Forced : No

Text #5
ID : 8
Format : PGS
Muxing mode : zlib
Codec ID : S_HDMV/PGS
Codec ID/Info : Picture based subtitle format used on BDs/HD-DVDs
Duration : 1 h 8 min
Bit rate : 34.5 kb/s
Count of elements : 1946
Stream size : 16.8 MiB (0%)
Title : English-FOR.English.Dub-PGS
Language : English
Default : No
Forced : No

Text #6
ID : 9
Format : PGS
Muxing mode : zlib
Codec ID : S_HDMV/PGS
Codec ID/Info : Picture based subtitle format used on BDs/HD-DVDs
Duration : 1 h 7 min
Bit rate : 24.9 kb/s
Count of elements : 1306
Stream size : 12.0 MiB (0%)
Title : English-FOR.Portuguese-PGS
Language : English
Default : No
Forced : No

Menu
00:00:00.000 : en:Chapter 01
00:05:52.208 : en:Chapter 02
00:12:06.083 : en:Chapter 03
00:17:48.333 : en:Chapter 04
00:23:53.875 : en:Chapter 05
00:30:02.875 : en:Chapter 06
00:36:06.250 : en:Chapter 07
00:41:48.125 : en:Chapter 08
00:49:12.458 : en:Chapter 09
00:53:40.375 : en:Chapter 10
00:59:54.791 : en:Chapter 11
01:05:49.041 : en:Chapter 12





1 个附件 售价 大小 下载 时间

Tito.and.the.Birds.2018.PORTUGUESE.1080p.BluRay.REMUX.AVC.DTS-HD.MA.5.1-FGT.torrent 0 金币 90.61K 196 次 4天前

#1楼
发帖时间:2020-02-14 20:44:05   |   回复数:1
911degrees
隐世仙人♂
非常感谢,谢谢分享
3天前 #2楼
游客组