coor
一代宗师

[2019] [欧美] [动作] [WEB-1080P] 霹雳娇娃/新霹雳娇娃 Charlies.Angels.2019.1080p.WEB-DL.DD5.1.H264-FGT 4.01GB

-->

帖子完整标题:霹雳娇娃/新霹雳娇娃 Charlies.Angels.2019.1080p.WEB-DL.DD5.1.H264-FGT 4.01GB




◎译  名 霹雳娇娃 / 新霹雳娇娃 / 查理的天使 / 神探俏嬌娃(港) / 霹雳天使
◎片  名 Charlie's Angels
◎年  代 2019
◎产  地 美国
◎类  别 动作 / 冒险
◎语  言 英语
◎上映日期 2019-11-15(美国/中国大陆)
◎IMDb评分 4.2/10 from 18274 users
◎IMDb链接 https://www.imdb.com/title/tt5033998
◎豆瓣评分 5.9/10 from 23019 users
◎豆瓣链接 https://movie.douban.com/subject/26612258/
◎片  长 119分钟
◎导  演 伊丽莎白·班克斯 Elizabeth Banks
◎编  剧 伊丽莎白·班克斯 Elizabeth Banks / 埃文·斯彼里奥托普洛斯 Evan Spiliotopoulos / 大卫·奥伯恩 David Auburn
◎主  演 克里斯汀·斯图尔特 Kristen Stewart
      娜奥米·斯科特 Naomi Scott
      埃拉·巴林斯卡 Ella Balinska
      伊丽莎白·班克斯 Elizabeth Banks
      帕特里克·斯图尔特 Patrick Stewart
      山姆·克拉弗林 Sam Claflin
      乔纳森·塔克 Jonathan Tucker
      奈特·法松 Nat Faxon
      诺亚·琴蒂内奥 Noah Centineo
      路易斯·赫拉尔多·门德斯 Luis Gerardo Méndez
      杰曼·翰苏 Djimon Hounsou
      吴育刚 Chris Pang
      利维娅?马特斯 Livia Matthes
      莎拉·贝纳尼 Sarah Bennani
      罗伯特?马瑟 Robert Maaser
      丹尼尔·里索 Daniele Rizzo
      穆拉利·佩鲁马尔 Murali Perumal
      杰奎琳·史密斯 Jaclyn Smith
      海莉·斯坦菲尔德 Hailee Steinfeld
      丽丽·莱因哈特 Lili Reinhart
      拉弗恩·考克斯 Laverne Cox
      丹尼卡·帕翠克 Danica Patrick
      龙达·鲁西 Ronda Rousey


◎标  签 动作 | 女性 | 特工 | 美国 | 美女 | 2019 | 喜剧 | 冒险

◎简  介

  讲述了新一代火辣美女天使克里斯汀·斯图尔特、娜奥米·斯科特、埃拉·巴林斯卡霸气组队强势打击危险势力的故事。本片由好莱坞实力派导演及演员伊丽莎白·班克斯执导,高空跳伞、狂野飙车、拳脚肉搏、激燃枪战等惊险动作场面接连不断,肾上腺素飙升。三大天使特工技能高超,大玩变身诱惑上演温柔杀机。

◎获奖情况

  第24届金卫星奖(2020)
  电影部门 最佳原创歌曲(提名)
Video
ID : 1
Format : AVC
Format/Info : Advanced Video Codec
Format profile : [email protected]
Format settings : CABAC / 5 Ref Frames
Format settings, CABAC : Yes
Format settings, Reference frames : 5 frames
Codec ID : V_MPEG4/ISO/AVC
Duration : 1 h 58 min
Bit rate : 4 459 kb/s
Width : 1 920 pixels
Height : 798 pixels
Display aspect ratio : 2.40:1
Frame rate mode : Constant
Frame rate : 23.976 (24000/1001) FPS
Color space : YUV
Chroma subsampling : 4:2:0
Bit depth : 8 bits
Scan type : Progressive
Bits/(Pixel*Frame) : 0.121
Stream size : 3.69 GiB (92%)
Title : Charlies Angels.2019.1080p.WEB-DL.DD5.1.H264-FGT
Language : English
Default : Yes
Forced : No
Color range : Limited
Color primaries : BT.709
Transfer characteristics : BT.709
Matrix coefficients : BT.709

Audio
ID : 2
Format : AC-3
Format/Info : Audio Coding 3
Commercial name : Dolby Digital
Codec ID : A_AC3
Duration : 1 h 58 min
Bit rate mode : Constant
Bit rate : 384 kb/s
Channel(s) : 6 channels
Channel layout : L R C LFE Ls Rs
Sampling rate : 48.0 kHz
Frame rate : 31.250 FPS (1536 SPF)
Bit depth : 16 bits
Compression mode : Lossy
Stream size : 325 MiB (8%)
Title : Charlies Angels.2019.1080p.WEB-DL.DD5.1.H264-FGT
Language : English
Service kind : Complete Main
Default : Yes
Forced : No

Text
ID : 3
Format : UTF-8
Codec ID : S_TEXT/UTF8
Codec ID/Info : UTF-8 Plain Text
Duration : 1 h 52 min
Bit rate : 62 b/s
Count of elements : 1743
Stream size : 51.4 KiB (0%)
Language : English
Default : Yes
Forced : No

Menu
00:00:00.000 : en:1
00:10:25.625 : en:2
00:16:49.549 : en:3
00:26:27.752 : en:4
00:31:51.783 : en:5
00:37:35.083 : en:6
00:43:54.878 : en:7
00:46:38.249 : en:8
00:51:25.535 : en:9
00:55:09.257 : en:10
01:03:47.691 : en:11
01:11:23.188 : en:12
01:20:13.842 : en:13
01:30:46.558 : en:14
01:40:30.641 : en:15
01:45:23.099 : en:16





1 个附件 售价 大小 下载 时间

Charlies.Angels.2019.1080p.WEB-DL.DD5.1.H264-FGT.torrent 0 金币 40.65K 3290 次 7月前

#1楼
发帖时间:2020-02-14 20:11:36   |   回复数:1
911degrees
隐世仙人♂
非常感谢,谢谢分享
7月前 #2楼
游客组