coor
一代宗师

[更 早] [欧美] [剧情] [WEB-1080P] 广岛:走出灰烬/广岛生死劫 Hiroshima.Out.of.the.Ashes.1990.1080p.WEBRip.x264-RARBG 1.89GB

-->

帖子完整标题:广岛:走出灰烬/广岛生死劫 Hiroshima.Out.of.the.Ashes.1990.1080p.WEBRip.x264-RARBG 1.89GB




◎译  名 广岛:走出灰烬 / 广岛生死劫
◎片  名 Hiroshima: Out of the Ashes
◎年  代 1990
◎产  地 美国
◎类  别 剧情 / 历史 / 战争
◎语  言 英语
◎上映日期 1990
◎IMDb评分 6.1/10 from 279 users
◎IMDb链接 https://www.imdb.com/title/tt0099772
◎豆瓣评分 0/10 from 0 users
◎豆瓣链接 https://movie.douban.com/subject/5114533/
◎片  长 100分钟
◎导  演 Peter Werner
◎编  剧 John McGreevey
◎主  演 贾德·尼尔森 Judd Nelson
      富田谭玲 Tamlyn Tomita
      马克斯·冯·叙多 Max von Sydow
      森田则之 Pat Morita


◎简  介

  1945年8月,美军一架B-29轰炸机在广岛投掷一颗原子弹,不仅造成多人死伤惨剧,也将当地夷为平地。面对到处断桓残壁、医疗物资缺乏惨景,当地德国席门神父卷起衣袖协助日本人安置,而广岛医院仅剩的原医生则设法利用病人症状、血液与病人距离原子弹远近作为研究重点,设法找出治疗方式。随后,日本天皇藉由广播发表投降宣言,但仍无法停止日本人的悲恸,对美国人的愤恨…
Video
ID : 1
Format : AVC
Format/Info : Advanced Video Codec
Format profile : [email protected]
Format settings : CABAC / 4 Ref Frames
Format settings, CABAC : Yes
Format settings, Reference frames : 4 frames
Codec ID : avc1
Codec ID/Info : Advanced Video Coding
Duration : 1 h 39 min
Bit rate : 2 500 kb/s
Width : 1 920 pixels
Height : 1 080 pixels
Display aspect ratio : 16:9
Frame rate mode : Constant
Frame rate : 29.970 (29970/1000) FPS
Color space : YUV
Chroma subsampling : 4:2:0
Bit depth : 8 bits
Scan type : Progressive
Bits/(Pixel*Frame) : 0.040
Stream size : 1.73 GiB (91%)
Writing library : x264 core 152 r2851M ba24899
Encoding settings : cabac=1 / ref=4 / deblock=1:-1:-1 / analyse=0x3:0x113 / me=umh / subme=9 / psy=1 / psy_rd=1.00:0.15 / mixed_ref=1 / me_range=24 / chroma_me=1 / trellis=2 / 8x8dct=1 / cqm=0 / deadzone=21,11 / fast_pskip=1 / chroma_qp_offset=-3 / threads=16 / lookahead_threads=4 / sliced_threads=0 / nr=0 / decimate=1 / interlaced=0 / bluray_compat=0 / constrained_intra=0 / bframes=3 / b_pyramid=2 / b_adapt=2 / b_bias=0 / direct=3 / weightb=1 / open_gop=0 / weightp=2 / keyint=250 / keyint_min=25 / scenecut=40 / intra_refresh=0 / rc_lookahead=50 / rc=2pass / mbtree=1 / bitrate=2500 / ratetol=1.0 / qcomp=0.60 / qpmin=0 / qpmax=69 / qpstep=4 / cplxblur=20.0 / qblur=0.5 / vbv_maxrate=31250 / vbv_bufsize=31250 / nal_hrd=none / filler=0 / ip_ratio=1.40 / aq=3:1.00
Encoded date : UTC 2020-02-13 18:07:21
Tagged date : UTC 2020-02-13 18:07:21
Codec configuration box : avcC

Audio
ID : 2
Format : AAC LC
Format/Info : Advanced Audio Codec Low Complexity
Codec ID : mp4a-40-2
Duration : 1 h 39 min
Duration_LastFrame : -11 ms
Bit rate mode : Constant
Bit rate : 224 kb/s
Channel(s) : 2 channels
Channel layout : L R
Sampling rate : 48.0 kHz
Frame rate : 46.875 FPS (1024 SPF)
Compression mode : Lossy
Stream size : 159 MiB (8%)
Language : English
Default : Yes
Alternate group : 1
Encoded date : UTC 2020-02-13 18:07:21
Tagged date : UTC 2020-02-13 18:07:21





1 个附件 售价 大小 下载 时间

Hiroshima.Out.of.the.Ashes.1990.1080p.WEBRip.x264-RARBG.torrent 0 金币 19.59K 518 次 7月前

#1楼
发帖时间:2020-02-14 19:22:04   |   回复数:2
悠悠思
小有名气
收藏了,谢谢楼主
7月前 #2楼
911degrees
隐世仙人♂
非常感谢,谢谢分享
7月前 #3楼
游客组