coor
一代宗师

[更 早] [欧美] [剧情] [BD-1080P] 极速暴力 Angel.Unchained.1970.1080p.BluRay.x264-HANDJOB 7.32GB

-->

帖子完整标题:极速暴力 Angel.Unchained.1970.1080p.BluRay.x264-HANDJOB 7.32GB




◎译  名 极速暴力
◎片  名 Angel Unchained
◎年  代 1970
◎产  地 美国
◎类  别 剧情 / 动作 / 惊悚
◎语  言 英语
◎上映日期 1970-12-09
◎IMDb评分 5.1/10 from 292 users
◎IMDb链接 https://www.imdb.com/title/tt0065401
◎豆瓣评分 0/10 from 0 users
◎豆瓣链接 https://movie.douban.com/subject/2003017/
◎片  长 86 分钟
◎导  演 Lee Madden
◎主  演 Don Stroud
      Luke Askew


◎标  签 美国 | DVDRip | 1970 | 美国电影 | 5

◎简  介

  暂无相关剧情介绍
Video
ID : 1
Format : AVC
Format/Info : Advanced Video Codec
Format profile : [email protected]
Format settings : CABAC / 4 Ref Frames
Format settings, CABAC : Yes
Format settings, Reference frames : 4 frames
Codec ID : V_MPEG4/ISO/AVC
Duration : 1 h 26 min
Bit rate : 11.9 Mb/s
Width : 1 916 pixels
Height : 1 040 pixels
Display aspect ratio : 1.85:1
Frame rate mode : Constant
Frame rate : 23.976 (24000/1001) FPS
Color space : YUV
Chroma subsampling : 4:2:0
Bit depth : 8 bits
Scan type : Progressive
Bits/(Pixel*Frame) : 0.249
Stream size : 7.21 GiB (99%)
Writing library : x264 core 157 r2935 545de2f
Encoding settings : cabac=1 / ref=4 / deblock=1:-3:-3 / analyse=0x3:0x133 / me=umh / subme=10 / psy=1 / psy_rd=1.00:0.00 / mixed_ref=1 / me_range=32 / chroma_me=1 / trellis=2 / 8x8dct=1 / cqm=0 / deadzone=21,11 / fast_pskip=0 / chroma_qp_offset=-2 / threads=12 / lookahead_threads=3 / sliced_threads=0 / nr=0 / decimate=0 / interlaced=0 / bluray_compat=0 / constrained_intra=0 / bframes=16 / b_pyramid=2 / b_adapt=2 / b_bias=0 / direct=3 / weightb=1 / open_gop=0 / weightp=2 / keyint=240 / keyint_min=24 / scenecut=40 / intra_refresh=0 / rc_lookahead=60 / rc=crf / mbtree=0 / crf=20.0 / qcomp=0.60 / qpmin=0 / qpmax=69 / qpstep=4 / vbv_maxrate=62500 / vbv_bufsize=78125 / crf_max=0.0 / nal_hrd=none / filler=0 / ip_ratio=1.40 / pb_ratio=1.30 / aq=2:1.00
Default : Yes
Forced : No
Color range : Limited
Color primaries : BT.709
Transfer characteristics : BT.709
Matrix coefficients : BT.709

Audio
ID : 2
Format : AAC LC
Format/Info : Advanced Audio Codec Low Complexity
Codec ID : A_AAC-2
Duration : 1 h 26 min
Bit rate : 177 kb/s
Channel(s) : 2 channels
Channel layout : L R
Sampling rate : 48.0 kHz
Frame rate : 46.875 FPS (1024 SPF)
Compression mode : Lossy
Stream size : 110 MiB (1%)
Language : English
Default : Yes
Forced : No

Text
ID : 3
Format : UTF-8
Codec ID : S_TEXT/UTF8
Codec ID/Info : UTF-8 Plain Text
Duration : 1 h 26 min
Bit rate : 44 b/s
Count of elements : 963
Stream size : 27.9 KiB (0%)
Language : English
Default : No
Forced : No

Menu
00:00:00.000 : :Chapter 1
00:05:49.808 : :Chapter 2
00:12:34.170 : :Chapter 3
00:19:49.605 : :Chapter 4
00:26:53.654 : :Chapter 5
00:31:24.800 : :Chapter 6
00:35:45.560 : :Chapter 7
00:40:53.326 : :Chapter 8
00:48:33.702 : :Chapter 9
00:54:02.281 : :Chapter 10
01:00:23.578 : :Chapter 11
01:07:55.029 : :Chapter 12
01:13:53.804 : :Chapter 13
01:18:19.737 : :Chapter 14
01:24:58.677 : :Chapter 15





1 个附件 售价 大小 下载 时间

Angel.Unchained.1970.1080p.BluRay.x264-HANDJOB.torrent 0 金币 37.09K 203 次 6月前

#1楼
发帖时间:2020-02-14 16:54:32   |   回复数:1
911degrees
隐世仙人♂
非常感谢,谢谢分享
6月前 #2楼
游客组