coor
一代宗师

[更 早] [欧美] [喜剧] [BD-1080P] 坏东西/婚前不做亏心事 Very.Bad.Things.1998.SHOUT.1080p.BluRay.x264.DTS-MaG 9.62GB

-->

帖子完整标题:坏东西/婚前不做亏心事 Very.Bad.Things.1998.SHOUT.1080p.BluRay.x264.DTS-MaG 9.62GB




◎译  名 坏东西 / 婚前不做亏心事 / 宝贝好坏
◎片  名 Very Bad Things
◎年  代 1998
◎产  地 美国
◎类  别 喜剧 / 惊悚 / 犯罪
◎语  言 英语
◎上映日期 1998-11-25
◎IMDb评分 6.4/10 from 43710 users
◎IMDb链接 https://www.imdb.com/title/tt0124198
◎豆瓣评分 7.1/10 from 1090 users
◎豆瓣链接 https://movie.douban.com/subject/1293660/
◎片  长 100 分钟
◎导  演 Peter Berg
◎编  剧 Peter Berg
◎主  演 Cameron Diaz
      Christian Slater
      Jon Favreau
      Leland Orser


◎标  签 黑色幽默 | 美国 | 喜剧 | 犯罪 | 黑色 | 美国电影 | 人性 | CameronDiaz

◎简  介

  凯尔(乔恩·费儒 Jon Favreau 饰)和劳拉(卡梅隆·迪亚茨 Cameron Diaz 饰)即将步入婚姻的殿堂,在结婚之前,凯尔决定同罗伯特(克里斯汀·史莱特 Christian Slater 饰)、查尔斯(勒兰德·奥瑟 Leland Orser 饰)、麦克(杰里米·皮文 Jeremy Piven 饰)和亚当(丹尼尔·斯特恩 Daniel Stern 饰)四位好友一起到拉斯维加斯进行婚前最后的狂欢。
  为了替狂欢助兴,罗伯特请来了一位名叫蒂娜(Kobé Tai 饰)的脱衣舞娘,蒂娜的出现果然点燃了夜晚的激情,没想到却也成为了一干麻烦的导火索。一场意外中,蒂娜死在了客房的浴室里,面对这一屋子的毒品,惊慌失措的伙伴们决定“私了”此事,不幸的是,逐渐脱离了五人掌控的现实将他们一次又一次的抛入了疯狂之中。
Video
ID : 1
Format : AVC
Format/Info : Advanced Video Codec
Format profile : [email protected]
Format settings : CABAC / 4 Ref Frames
Format settings, CABAC : Yes
Format settings, Reference frames : 4 frames
Codec ID : V_MPEG4/ISO/AVC
Duration : 1 h 40 min
Bit rate : 12.2 Mb/s
Width : 1 920 pixels
Height : 1 040 pixels
Display aspect ratio : 1.85:1
Frame rate mode : Constant
Frame rate : 23.976 (24000/1001) FPS
Color space : YUV
Chroma subsampling : 4:2:0
Bit depth : 8 bits
Scan type : Progressive
Bits/(Pixel*Frame) : 0.255
Stream size : 8.56 GiB (89%)
Writing library : x264 core 157 r2935 545de2f
Encoding settings : cabac=1 / ref=4 / deblock=1:-3:-3 / analyse=0x3:0x133 / me=umh / subme=9 / psy=1 / psy_rd=1.00:0.00 / mixed_ref=1 / me_range=32 / chroma_me=1 / trellis=2 / 8x8dct=1 / cqm=0 / deadzone=21,11 / fast_pskip=0 / chroma_qp_offset=-2 / threads=6 / lookahead_threads=1 / sliced_threads=0 / nr=0 / decimate=1 / interlaced=0 / bluray_compat=0 / constrained_intra=0 / bframes=8 / b_pyramid=2 / b_adapt=2 / b_bias=0 / direct=3 / weightb=1 / open_gop=0 / weightp=2 / keyint=240 / keyint_min=24 / scenecut=40 / intra_refresh=0 / rc_lookahead=60 / rc=crf / mbtree=1 / crf=18.5 / qcomp=0.60 / qpmin=0 / qpmax=69 / qpstep=4 / vbv_maxrate=62500 / vbv_bufsize=78125 / crf_max=0.0 / nal_hrd=none / filler=0 / ip_ratio=1.40 / aq=1:1.00
Default : Yes
Forced : No
Color range : Limited
Color primaries : BT.709
Transfer characteristics : BT.709
Matrix coefficients : BT.709

Audio
ID : 2
Format : DTS
Format/Info : Digital Theater Systems
Codec ID : A_DTS
Duration : 1 h 40 min
Bit rate mode : Constant
Bit rate : 1 509 kb/s
Channel(s) : 6 channels
Channel layout : C L R Ls Rs LFE
Sampling rate : 48.0 kHz
Frame rate : 93.750 FPS (512 SPF)
Bit depth : 24 bits
Compression mode : Lossy
Stream size : 1.06 GiB (11%)
Title : DTS 5.1 Audio
Language : English
Default : Yes
Forced : No

Text
ID : 3
Format : UTF-8
Codec ID : S_TEXT/UTF8
Codec ID/Info : UTF-8 Plain Text
Duration : 1 h 40 min
Bit rate : 87 b/s
Count of elements : 2412
Stream size : 64.4 KiB (0%)
Title : SDH
Language : English
Default : Yes
Forced : No

Menu
00:00:00.000 : :Opening Credits/Checklists
00:07:35.413 : :The Drive
00:10:36.845 : :Getting Started
00:14:56.312 : :The Stripper
00:20:08.958 : :105lb Problem
00:26:41.975 : :Hotel Security
00:32:01.336 : :Clean Up
00:33:46.316 : :Desert Burial
00:42:30.214 : :Remorse
00:45:11.167 : :Tempers Flare
00:50:46.418 : :Losing It
01:00:02.933 : :Facing Reality
01:05:02.190 : :Confrontation
01:10:35.106 : :Taking Care of Business
01:17:39.363 : :Kyle\'s Confession
01:21:06.236 : :Wedding Day Jitters
01:28:49.157 : :Accidents Will Happen
01:32:43.933 : :A Safe Place/Closing Credits





1 个附件 售价 大小 下载 时间

Very.Bad.Things.1998.SHOUT.1080p.BluRay.x264.DTS-MaG.torrent 0 金币 48.63K 490 次 6月前

#1楼
发帖时间:2020-02-14 16:52:30   |   回复数:1
911degrees
隐世仙人♂
非常感谢,谢谢分享
6月前 #2楼
游客组