coor
一代宗师

[更 早] [欧美] [喜剧] [BD-1080P] 灵通姻缘线/靈通姻緣線 Vibes.1988.1080p.BluRay.x264-HANDJOB 12.31GB

-->

帖子完整标题:灵通姻缘线/靈通姻緣線 Vibes.1988.1080p.BluRay.x264-HANDJOB 12.31GB




◎译  名 灵通姻缘线 / 靈通姻緣線
◎片  名 Vibes
◎年  代 1988
◎产  地 美国
◎类  别 喜剧 / 悬疑 / 奇幻 / 冒险
◎语  言 英语
◎上映日期 1988-08-05
◎IMDb评分 5.7/10 from 3169 users
◎IMDb链接 https://www.imdb.com/title/tt0096378
◎豆瓣评分 0/10 from 0 users
◎豆瓣链接 https://movie.douban.com/subject/3089407/
◎片  长 99 分钟
◎导  演 Ken Kwapis
◎编  剧 洛维尔·冈茨 Lowell Ganz / 巴巴卢·曼德尔 Babaloo Mandel
◎主  演 Cyndi Lauper
      Jeff Goldblum


◎标  签 Lauper | Cyndi | 美国电影 | 电颤琴 | MIFF19 | ABED

◎简  介

  Vibes是1988年美国浪漫冒险喜剧电影,由Cyndi Lauper,Jeff Goldblum,Julian Sands和Peter Falk主演。它由Ken Kwapis执导。情节围绕着西尔维亚,一个狡猾的通灵者和尼克,她同样奇怪的心灵朋友和他们的厄瓜多尔安第斯山脉之旅,寻找“精神能量的来源”。
Video
ID : 1
Format : AVC
Format/Info : Advanced Video Codec
Format profile : [email protected]
Format settings : CABAC / 4 Ref Frames
Format settings, CABAC : Yes
Format settings, Reference frames : 4 frames
Codec ID : V_MPEG4/ISO/AVC
Duration : 1 h 39 min
Bit rate : 17.2 Mb/s
Width : 1 920 pixels
Height : 1 038 pixels
Display aspect ratio : 1.85:1
Frame rate mode : Constant
Frame rate : 23.976 (24000/1001) FPS
Color space : YUV
Chroma subsampling : 4:2:0
Bit depth : 8 bits
Scan type : Progressive
Bits/(Pixel*Frame) : 0.361
Stream size : 12.0 GiB (97%)
Writing library : x264 core 148 r2643 5c65704
Encoding settings : cabac=1 / ref=4 / deblock=1:-2:-2 / analyse=0x3:0x133 / me=umh / subme=9 / psy=1 / psy_rd=1.00:0.00 / mixed_ref=1 / me_range=24 / chroma_me=1 / trellis=2 / 8x8dct=1 / cqm=0 / deadzone=21,11 / fast_pskip=0 / chroma_qp_offset=-2 / threads=6 / lookahead_threads=1 / sliced_threads=0 / nr=0 / decimate=1 / interlaced=0 / bluray_compat=0 / constrained_intra=0 / bframes=6 / b_pyramid=2 / b_adapt=2 / b_bias=0 / direct=3 / weightb=1 / open_gop=0 / weightp=2 / keyint=240 / keyint_min=24 / scenecut=40 / intra_refresh=0 / rc_lookahead=50 / rc=crf / mbtree=0 / crf=19.0 / qcomp=0.60 / qpmin=0 / qpmax=69 / qpstep=4 / vbv_maxrate=62500 / vbv_bufsize=78125 / crf_max=0.0 / nal_hrd=none / filler=0 / ip_ratio=1.40 / pb_ratio=1.30 / aq=3:0.80
Default : Yes
Forced : No
Color range : Limited
Color primaries : BT.709
Transfer characteristics : BT.709
Matrix coefficients : BT.709

Audio
ID : 2
Format : FLAC
Format/Info : Free Lossless Audio Codec
Codec ID : A_FLAC
Duration : 1 h 39 min
Bit rate mode : Variable
Bit rate : 451 kb/s
Channel(s) : 2 channels
Channel layout : L R
Sampling rate : 48.0 kHz
Frame rate : 11.719 FPS (4096 SPF)
Bit depth : 16 bits
Compression mode : Lossless
Stream size : 321 MiB (3%)
Writing library : libFLAC 1.2.1 (UTC 2007-09-17)
Language : English
Default : Yes
Forced : No

Text
ID : 3
Format : UTF-8
Codec ID : S_TEXT/UTF8
Codec ID/Info : UTF-8 Plain Text
Duration : 1 h 36 min
Bit rate : 63 b/s
Count of elements : 1324
Stream size : 45.3 KiB (0%)
Language : English
Default : Yes
Forced : No

Menu
00:00:00.000 : :Chapter 1
00:06:25.260 : :Chapter 2
00:14:28.117 : :Chapter 3
00:17:55.825 : :Chapter 4
00:28:39.218 : :Chapter 5
00:38:09.329 : :Chapter 6
00:50:29.026 : :Chapter 7
01:05:03.191 : :Chapter 8
01:12:11.953 : :Chapter 9
01:30:33.887 : :Chapter 10
01:35:25.470 : :Chapter 11





1 个附件 售价 大小 下载 时间

Vibes.1988.1080p.BluRay.x264-HANDJOB.torrent 0 金币 62.06K 210 次 6月前

#1楼
发帖时间:2020-02-14 16:50:29   |   回复数:2
911degrees
隐世仙人♂
非常感谢,谢谢分享
6月前 #2楼
kola13
武林盟主
感谢分享
6月前 #3楼
游客组