coor
一代宗师

[2018] [欧美] [剧情] [BD-1080P] 失落的维京人 The.Lost.Viking.2018.1080p.BluRay.x264-HANDJOB 8.52GB

-->

帖子完整标题:失落的维京人 The.Lost.Viking.2018.1080p.BluRay.x264-HANDJOB 8.52GB




◎译  名 失落的维京人
◎片  名 The Lost Viking
◎年  代 2018
◎产  地 美国
◎类  别 剧情 / 冒险
◎语  言 英语
◎上映日期 2018-05-28(美国)
◎IMDb评分 3.9/10 from 234 users
◎IMDb链接 https://www.imdb.com/title/tt6413868
◎豆瓣评分 0/10 from 0 users
◎豆瓣链接 https://movie.douban.com/subject/30234269/
◎片  长 90分钟
◎导  演 埃米特·康明斯 Emmet Cummins
◎编  剧 埃米特·康明斯 Emmet Cummins / Victor Mawer
◎主  演 Dean Ridge
      Ross O'Hennessy
      Kezia Burrows
      James Groom
      Ioan Hefin
      Chris Hampson
      Michelle McTernan
      Ian Virgo
      Elin Hayes
      Katra Knight
      克里斯·巴尼科特 Chris Barnicoat
      Ean Skinner


◎简  介

  A young Viking called Vitharr arrives in Britain with dreams of conquest and adventure, but when his family and clan are ambushed and killed, he must survive alone in this strange,dangerous new land as he searches for his Uncle's [email protected]://www.btgoo.com/vplay/47039.html
Video
ID : 2
Format : AVC
Format/Info : Advanced Video Codec
Format profile : [email protected]
Format settings : CABAC / 4 Ref Frames
Format settings, CABAC : Yes
Format settings, Reference frames : 4 frames
Codec ID : V_MPEG4/ISO/AVC
Duration : 1 h 46 min
Bit rate : 10.8 Mb/s
Width : 1 920 pixels
Height : 804 pixels
Display aspect ratio : 2.40:1
Frame rate mode : Constant
Frame rate : 23.976 (24000/1001) FPS
Color space : YUV
Chroma subsampling : 4:2:0
Bit depth : 8 bits
Scan type : Progressive
Bits/(Pixel*Frame) : 0.291
Stream size : 8.04 GiB (94%)
Writing library : x264 core 157
Encoding settings : cabac=1 / ref=4 / deblock=1:-3:-3 / analyse=0x3:0x133 / me=umh / subme=9 / psy=1 / psy_rd=1.00:0.00 / mixed_ref=1 / me_range=24 / chroma_me=1 / trellis=2 / 8x8dct=1 / cqm=0 / deadzone=21,11 / fast_pskip=0 / chroma_qp_offset=-2 / threads=18 / lookahead_threads=2 / sliced_threads=0 / nr=0 / decimate=1 / interlaced=0 / bluray_compat=0 / constrained_intra=0 / bframes=5 / b_pyramid=2 / b_adapt=2 / b_bias=0 / direct=3 / weightb=1 / open_gop=0 / weightp=2 / keyint=240 / keyint_min=24 / scenecut=40 / intra_refresh=0 / rc_lookahead=50 / rc=crf / mbtree=0 / crf=13.8 / qcomp=0.60 / qpmin=0 / qpmax=69 / qpstep=4 / vbv_maxrate=62500 / vbv_bufsize=78125 / crf_max=0.0 / nal_hrd=none / filler=0 / ip_ratio=1.40 / pb_ratio=1.30 / aq=2:1.00
Default : Yes
Forced : No
Color range : Limited
Color primaries : BT.709
Transfer characteristics : BT.709
Matrix coefficients : BT.709

Audio
ID : 1
Format : AC-3
Format/Info : Audio Coding 3
Commercial name : Dolby Digital
Codec ID : A_AC3
Duration : 1 h 46 min
Bit rate mode : Constant
Bit rate : 640 kb/s
Channel(s) : 6 channels
Channel layout : L R C LFE Ls Rs
Sampling rate : 48.0 kHz
Frame rate : 31.250 FPS (1536 SPF)
Bit depth : 16 bits
Compression mode : Lossy
Stream size : 490 MiB (6%)
Language : English
Service kind : Complete Main
Default : Yes
Forced : No

Menu
00:00:00.000 : :Chapter 1
00:10:42.267 : :Chapter 2
00:20:13.963 : :Chapter 3
00:31:19.836 : :Chapter 4
00:43:19.931 : :Chapter 5
00:52:44.286 : :Chapter 6
01:00:10.732 : :Chapter 7
01:07:34.842 : :Chapter 8
01:19:37.106 : :Chapter 9
01:26:30.936 : :Chapter 10
01:32:49.606 : :Chapter 11
01:42:14.795 : :Chapter 12





1 个附件 售价 大小 下载 时间

The.Lost.Viking.2018.1080p.BluRay.x264-HANDJOB.torrent 0 金币 43.09K 196 次 4天前

#1楼
发帖时间:2020-02-14 16:38:33   |   回复数:1
911degrees
隐世仙人♂
非常感谢,谢谢分享
4天前 #2楼
游客组