coor
一代宗师

[更 早] [欧美] [科幻] [BD-1080P] 截杀外星人 Xtro.III.Watch.The.Skies.1995.1080p.BluRay.x264.DTS-FGT 8.79GB

-->

帖子完整标题:截杀外星人 Xtro.III.Watch.The.Skies.1995.1080p.BluRay.x264.DTS-FGT 8.79GB




◎译  名 截杀外星人
◎片  名 Xtro 3: Watch the Skies
◎年  代 1995
◎产  地 美国
◎类  别 科幻 / 恐怖
◎语  言 英语
◎上映日期 1995-11-14
◎IMDb评分 3.5/10 from 859 users
◎IMDb链接 https://www.imdb.com/title/tt0115006
◎豆瓣评分 0/10 from 0 users
◎豆瓣链接 https://movie.douban.com/subject/1299324/
◎片  长 90 分钟
◎导  演 Harry Bromley Davenport
◎编  剧 Daryl Haney
◎主  演 罗伯特·考普 Robert Culp


◎标  签 美国电影 | 恐怖 | 科幻 | 邪典 | 血腥 | 电影 | 怪物 | 很想看,儿时的回忆

◎简  介

  柯恩被美国徵召到远洋海岛进行一个扫雷行动,出到岛上,柯恩立刻察觉事有蹊跷。柯恩的手下在扫雷时意外炸破一栋建筑物,外星人向他们攻击,众人逃出,在洞外又发现一个老人,老人率众人到他居住的洞穴。在洞内,柯恩得知在1995年时,飞碟坠毁,美军派员到岛上进行研究,外星人反击,研究组全死于非命,仅留下老人,柯恩设计将外星人陷住,并安排逃离岛外的木筏…
Video
ID : 1
Format : AVC
Format/Info : Advanced Video Codec
Format profile : [email protected]
Format settings : CABAC / 4 Ref Frames
Format settings, CABAC : Yes
Format settings, Reference frames : 4 frames
Codec ID : V_MPEG4/ISO/AVC
Duration : 1 h 36 min
Bit rate : 11.5 Mb/s
Width : 1 920 pixels
Height : 1 036 pixels
Display aspect ratio : 1.85:1
Frame rate mode : Constant
Frame rate : 23.976 (24000/1001) FPS
Color space : YUV
Chroma subsampling : 4:2:0
Bit depth : 8 bits
Scan type : Progressive
Bits/(Pixel*Frame) : 0.241
Stream size : 7.77 GiB (88%)
Title : Xtro.III.Watch.The.Skies.1995.1080p.BluRay.x264.DTS-FGT
Writing library : x264 core 148 r2795M aaa9aa8
Encoding settings : cabac=1 / ref=4 / deblock=1:-2:-2 / analyse=0x3:0x113 / me=umh / subme=9 / psy=1 / psy_rd=1.00:0.15 / mixed_ref=1 / me_range=16 / chroma_me=1 / trellis=2 / 8x8dct=1 / cqm=0 / deadzone=21,11 / fast_pskip=1 / chroma_qp_offset=-3 / threads=24 / lookahead_threads=3 / sliced_threads=0 / nr=0 / decimate=1 / interlaced=0 / bluray_compat=0 / constrained_intra=0 / bframes=3 / b_pyramid=2 / b_adapt=1 / b_bias=0 / direct=3 / weightb=1 / open_gop=0 / weightp=2 / keyint=250 / keyint_min=25 / scenecut=40 / intra_refresh=0 / rc_lookahead=50 / rc=2pass / mbtree=1 / bitrate=11500 / ratetol=1.0 / qcomp=0.60 / qpmin=0 / qpmax=69 / qpstep=4 / cplxblur=20.0 / qblur=0.5 / vbv_maxrate=31250 / vbv_bufsize=31250 / nal_hrd=none / filler=0 / ip_ratio=1.40 / aq=1:1.00
Language : English
Default : Yes
Forced : No

Audio
ID : 2
Format : DTS
Format/Info : Digital Theater Systems
Codec ID : A_DTS
Duration : 1 h 36 min
Bit rate mode : Constant
Bit rate : 1 509 kb/s
Channel(s) : 2 channels
Channel layout : L R
Sampling rate : 48.0 kHz
Frame rate : 93.750 FPS (512 SPF)
Bit depth : 16 bits
Compression mode : Lossy
Stream size : 1.02 GiB (12%)
Title : Xtro.III.Watch.The.Skies.1995.1080p.BluRay.x264.DTS-FGT
Language : English
Default : Yes
Forced : No

Text
ID : 3
Format : UTF-8
Codec ID : S_TEXT/UTF8
Codec ID/Info : UTF-8 Plain Text
Duration : 1 h 32 min
Bit rate : 49 b/s
Count of elements : 1159
Stream size : 33.8 KiB (0%)
Language : English
Default : Yes
Forced : No

Menu
00:00:00.000 : en:Chapter 01
00:18:41.621 : en:Chapter 02
00:37:37.255 : en:Chapter 03
00:56:20.377 : en:Chapter 04
01:15:26.522 : en:Chapter 05





1 个附件 售价 大小 下载 时间

Xtro.III.Watch.The.Skies.1995.1080p.BluRay.x264.DTS-FGT.torrent 0 金币 44.51K 245 次 4天前

#1楼
发帖时间:2020-02-14 16:36:29   |   回复数:2
911degrees
隐世仙人♂
非常感谢,谢谢分享
4天前 #2楼
kola13
一派掌门
感谢分享
4天前 #3楼
游客组