coor
一代宗师

[2019] [欧美] [剧情] [BD-720P] 利刃出鞘/上流谋杀案 Knives.Out.2019.720p.BluRay.x264-YOL0W 4.37GB

-->

帖子完整标题:利刃出鞘/上流谋杀案 Knives.Out.2019.720p.BluRay.x264-YOL0W 4.37GB




◎译  名 利刃出鞘 / 上流谋杀案 / 亮剑 / 出鞘 / 神探白朗:福比利大宅谋杀案(港) / 致命遗产 / 锋回路转(台)
◎片  名 Knives Out
◎年  代 2019
◎产  地 美国
◎类  别 剧情 / 喜剧 / 悬疑 / 犯罪
◎语  言 英语 / 西班牙语
◎上映日期 2019-09-07(多伦多电影节) / 2019-11-27(美国) / 2019-11-29(中国大陆)
◎IMDb评分 8.0/10 from 142299 users
◎IMDb链接 https://www.imdb.com/title/tt8946378
◎豆瓣评分 8.2/10 from 290382 users
◎豆瓣链接 https://movie.douban.com/subject/30318116/
◎片  长 130分钟
◎导  演 莱恩·约翰逊 Rian Johnson
◎编  剧 莱恩·约翰逊 Rian Johnson
◎主  演 丹尼尔·克雷格 Daniel Craig
      安娜·德·阿玛斯 Ana de Armas
      克里斯·埃文斯 Chris Evans
      杰米·李·柯蒂斯 Jamie Lee Curtis
      迈克尔·珊农 Michael Shannon
      唐·约翰逊 Don Johnson
      托妮·科莱特 Toni Collette
      勒凯斯·斯坦菲尔德 Lakeith Stanfield
      克里斯托弗·普卢默 Christopher Plummer
      凯瑟琳·兰福德 Katherine Langford
      杰登·马泰尔 Jaeden Martell
      瑞琪·琳德赫姆 Riki Lindhome
      艾迪·帕特森 Edi Patterson
      弗兰克·奥兹 Frank Oz
      K·卡兰 K Callan
      诺阿·西甘 Noah Segan
      M·埃梅特·沃尔什 M. Emmet Walsh
      玛琳娜·福特 Marlene Forte
      劳尔·卡斯提洛 Raúl Castillo
      雪莉·罗德里格斯 Shyrley Rodriguez
      约瑟夫·高登-莱维特 Joseph Gordon-Levitt
      加布里埃尔·洛莱斯 Gabrielle Lorthe


◎标  签 悬疑 | 推理 | 美国 | 犯罪 | 黑色幽默 | 侦探 | 剧情 | 2019

◎简  介

  富豪小说家哈兰·斯隆比在自己85岁生日第二天,被发现在自家庄园离奇自杀,遗留了亿万遗产。久负盛名的大侦探布兰科(丹尼尔·克雷格饰)突然被匿名人士雇佣调查此案真相。同时,哈兰的孙子兰森(克里斯·埃文斯饰)也正在秘密调查此案。当布兰科和哈兰·斯隆比家族的其他人对谈时, 他发现事情并没有想象中那么简单。
  哈兰家族没有表面上那么和睦,每个人都有着不可告人的秘密,每个人都想得到遗产……究竟这起命案是自杀还是他杀?似乎每个人都有嫌疑。随着一位遗产继承人的意外亮相,真相谜底渐渐浮出水面……

◎获奖情况

  第92届奥斯卡金像奖(2020)
  最佳原创剧本(提名) 莱恩·约翰逊

  第77届金球奖(2020)
  电影类 最佳音乐/喜剧片(提名)
  电影类 音乐/喜剧片最佳男主角(提名) 丹尼尔·克雷格
  电影类 音乐/喜剧片最佳女主角(提名) 安娜·德·阿玛斯

  第73届英国电影学院奖(2020)
  电影奖 最佳原创剧本(提名) 莱恩·约翰逊

  第72届美国编剧工会奖(2020)
  电影奖 最佳原创剧本(提名) 莱恩·约翰逊

  第31届美国制片人工会奖(2020)
  最佳电影制片人奖(提名)

  第70届美国剪辑工会奖(2020)
  音乐/喜剧片最佳剪辑(提名) 鲍勃·达克萨

  第24届美国艺术指导工会奖(2020)
  电影奖 最佳当代电影艺术指导(提名) 大卫·格兰克

  第22届美国服装设计工会奖(2020)
  现代电影最佳服装设计 珍妮·伊根

  第91届美国国家评论协会奖(2019)
  最佳群戏
  年度佳片

  第25届美国评论家选择电影奖(2020)
  最佳群戏(提名)
  最佳喜剧片(提名)
  最佳原创剧本(提名) 莱恩·约翰逊

  第20届美国电影学会奖(2019)
  年度佳片

  第24届金卫星奖(2020)
  电影部门 最佳喜剧/音乐片(提名)
  电影部门 喜剧/音乐片最佳男主角(提名) 丹尼尔·克雷格
  电影部门 喜剧/音乐片最佳女主角(提名) 安娜·德·阿玛斯
  电影最佳群像

  第18届华盛顿影评人协会奖(2019)
  最佳群戏

  第40届伦敦影评人协会奖(2020)
  年度电影(提名)

  第32届芝加哥影评人协会奖(2019)
  最佳原创剧本(提名) 莱恩·约翰逊
  最佳艺术指导(提名)

  第4届亚特兰大影评人协会奖(2019)
  十佳影片

  第23届美国在线影评人协会奖(2020)
  最佳影片(提名)
  最佳原创剧本(提名) 莱恩·约翰逊

  第6届豆瓣电影年度榜单(2019)
  评分最高的外语电影(提名)
  评分最高的喜剧片(提名)
Video
ID : 1
Format : AVC
Format/Info : Advanced Video Codec
Format profile : [email protected]
Format settings : CABAC / 8 Ref Frames
Format settings, CABAC : Yes
Format settings, Reference frames : 8 frames
Codec ID : V_MPEG4/ISO/AVC
Duration : 2 h 10 min
Bit rate : 4 157 kb/s
Width : 1 280 pixels
Height : 688 pixels
Display aspect ratio : 1.85:1
Frame rate mode : Constant
Frame rate : 23.976 (24000/1001) FPS
Color space : YUV
Chroma subsampling : 4:2:0
Bit depth : 8 bits
Scan type : Progressive
Bits/(Pixel*Frame) : 0.197
Stream size : 3.78 GiB (87%)
Writing library : x264 core 159 r2991 1771b55
Encoding settings : cabac=1 / ref=8 / deblock=1:-3:-3 / analyse=0x3:0x133 / me=umh / subme=7 / psy=1 / psy_rd=1.00:0.00 / mixed_ref=1 / me_range=16 / chroma_me=1 / trellis=2 / 8x8dct=1 / cqm=0 / deadzone=21,11 / fast_pskip=1 / chroma_qp_offset=-2 / threads=16 / lookahead_threads=2 / sliced_threads=0 / nr=0 / decimate=1 / interlaced=0 / bluray_compat=0 / constrained_intra=0 / bframes=3 / b_pyramid=2 / b_adapt=2 / b_bias=0 / direct=3 / weightb=1 / open_gop=0 / weightp=2 / keyint=250 / keyint_min=23 / scenecut=40 / intra_refresh=0 / rc_lookahead=50 / rc=2pass / mbtree=1 / bitrate=4157 / ratetol=1.0 / qcomp=0.60 / qpmin=0 / qpmax=69 / qpstep=4 / cplxblur=20.0 / qblur=0.5 / ip_ratio=1.40 / aq=1:1.00
Language : English
Default : Yes
Forced : No
Color range : Limited
Matrix coefficients : BT.709

Audio
ID : 2
Format : AC-3
Format/Info : Audio Coding 3
Commercial name : Dolby Digital
Codec ID : A_AC3
Duration : 2 h 10 min
Bit rate mode : Constant
Bit rate : 640 kb/s
Channel(s) : 6 channels
Channel layout : L R C LFE Ls Rs
Sampling rate : 48.0 kHz
Frame rate : 31.250 FPS (1536 SPF)
Bit depth : 16 bits
Compression mode : Lossy
Stream size : 596 MiB (13%)
Title : English
Language : English
Service kind : Complete Main
Default : Yes
Forced : No





1 个附件 售价 大小 下载 时间

Knives.Out.2019.720p.BluRay.x264-YOL0W.torrent 0 金币 44.58K 938 次 4天前

#1楼
发帖时间:2020-02-14 16:34:27   |   回复数:3
二月妙
一派掌门

这个巨大的阵容呀,真是厉害了

4天前 #2楼
911degrees
隐世仙人♂
非常感谢,谢谢分享
4天前 #3楼
Buffett
武林高手
美队~
谢谢楼主
大家保重!
1天前 #4楼
游客组