coor
一代宗师

[更 早] [欧美] [喜剧] [WEB-1080P] 老爸老妈救世界 Mom.And.Dad.Save.The.World.1992.1080p.WEBRip.x264-RARBG 1.68GB

-->

帖子完整标题:老爸老妈救世界 Mom.And.Dad.Save.The.World.1992.1080p.WEBRip.x264-RARBG 1.68GB




◎译  名 老爸老妈救世界
◎片  名 Mom and Dad Save the World
◎年  代 1992
◎产  地 美国
◎类  别 喜剧 / 科幻 / 家庭
◎语  言 英语
◎上映日期 1992-07-24
◎IMDb评分 5.4/10 from 4152 users
◎IMDb链接 https://www.imdb.com/title/tt0104905
◎豆瓣评分 0/10 from 0 users
◎豆瓣链接 https://movie.douban.com/subject/1765264/
◎片  长 88 分钟
◎导  演 Greg Beeman
◎编  剧 克里斯·马瑟森 Chris Matheson
◎主  演 特瑞·加尔 Teri Garr
      杰弗瑞·琼斯 Jeffrey Jones
      乔恩·拉威茨 Jon Lovitz
      艾瑞克·爱都 Eric Idle
      萨尔马斯·拉苏拉拉 Thalmus Rasulala
      华莱士·肖恩 Wallace Shawn


◎标  签 科幻 | 喜剧 | 美国电影 | 1992 | 美国 | 极度法兰

◎简  介

  邪恶的Spengo星国王Tod爱上了地球人Nelson夫人,将她劫持到了外星,并意图摧毁地球,Nelson先生为了营救自己的妻子,和Spengo星人联合,要推翻Tod的暴政,并拯救地球
Video
ID : 1
Format : AVC
Format/Info : Advanced Video Codec
Format profile : [email protected]
Format settings : CABAC / 4 Ref Frames
Format settings, CABAC : Yes
Format settings, Reference frames : 4 frames
Codec ID : avc1
Codec ID/Info : Advanced Video Coding
Duration : 1 h 28 min
Bit rate : 2 500 kb/s
Width : 1 920 pixels
Height : 1 080 pixels
Display aspect ratio : 16:9
Frame rate mode : Constant
Frame rate : 29.970 (29970/1000) FPS
Color space : YUV
Chroma subsampling : 4:2:0
Bit depth : 8 bits
Scan type : Progressive
Bits/(Pixel*Frame) : 0.040
Stream size : 1.54 GiB (91%)
Writing library : x264 core 152 r2851M ba24899
Encoding settings : cabac=1 / ref=4 / deblock=1:-1:-1 / analyse=0x3:0x113 / me=umh / subme=9 / psy=1 / psy_rd=1.00:0.15 / mixed_ref=1 / me_range=24 / chroma_me=1 / trellis=2 / 8x8dct=1 / cqm=0 / deadzone=21,11 / fast_pskip=1 / chroma_qp_offset=-3 / threads=16 / lookahead_threads=4 / sliced_threads=0 / nr=0 / decimate=1 / interlaced=0 / bluray_compat=0 / constrained_intra=0 / bframes=3 / b_pyramid=2 / b_adapt=2 / b_bias=0 / direct=3 / weightb=1 / open_gop=0 / weightp=2 / keyint=250 / keyint_min=25 / scenecut=40 / intra_refresh=0 / rc_lookahead=50 / rc=2pass / mbtree=1 / bitrate=2500 / ratetol=1.0 / qcomp=0.60 / qpmin=0 / qpmax=69 / qpstep=4 / cplxblur=20.0 / qblur=0.5 / vbv_maxrate=31250 / vbv_bufsize=31250 / nal_hrd=none / filler=0 / ip_ratio=1.40 / aq=3:1.00
Encoded date : UTC 2020-02-13 07:11:52
Tagged date : UTC 2020-02-13 07:11:52
Codec configuration box : avcC

Audio
ID : 2
Format : AAC LC
Format/Info : Advanced Audio Codec Low Complexity
Codec ID : mp4a-40-2
Duration : 1 h 28 min
Bit rate mode : Constant
Bit rate : 224 kb/s
Channel(s) : 2 channels
Channel layout : L R
Sampling rate : 48.0 kHz
Frame rate : 46.875 FPS (1024 SPF)
Compression mode : Lossy
Stream size : 141 MiB (8%)
Language : English
Default : Yes
Alternate group : 1
Encoded date : UTC 2020-02-13 07:11:52
Tagged date : UTC 2020-02-13 07:11:52





1 个附件 售价 大小 下载 时间

Mom.And.Dad.Save.The.World.1992.1080p.WEBRip.x264-RARBG.torrent 0 金币 17.45K 105 次 6月前

#1楼
发帖时间:2020-02-14 15:58:18   |   回复数:0
游客组