coor
武林盟主

[2018] [欧美] [喜剧] [WEB-1080P] 我在隔壁过圣诞 Ill.Be.Next.Door.for.Christmas.2018.1080p.WEB-DL.DD5.1.H264-FGT 3.89GB

-->

帖子完整标题:我在隔壁过圣诞 Ill.Be.Next.Door.for.Christmas.2018.1080p.WEB-DL.DD5.1.H264-FGT 3.89GB




◎译  名 我在隔壁过圣诞 / The War on Christmas / 聖誕瘋(台)
◎片  名 I'll Be Next Door for Christmas
◎年  代 2018
◎产  地 美国
◎类  别 喜剧 / 家庭
◎语  言 英语
◎上映日期 2018-12-04(美国)
◎IMDb评分 5.4/10 from 674 users
◎IMDb链接 https://www.imdb.com/title/tt4057146
◎豆瓣评分 0/10 from 0 users
◎豆瓣链接 https://movie.douban.com/subject/30395232/
◎片  长 100分钟
◎导  演 David Jay Willis
◎编  剧 Jenna Park / David Jay Willis
◎主  演 阿蒂库斯·沙弗尔 Atticus Shaffer
      妮可·沙利文 Nicole Sullivan
      Juliette Angelo


◎标  签 美国

◎简  介

  妮基的老爸是個瘋狂聖誕迷,家中滿屋的聖誕飾品,每年的聖誕節總是鎮上的最大焦點,妮基的童年也受到聖誕節的「摧殘」,2歲時說的第一句話不是爸爸或媽媽,竟是哀求地說「不要扮精靈!」,17歲時在夏令營遇到頻率跟她相符的坦納,因為母親在聖誕節那天離開了他們家,使他極度痛恨任何與聖誕節相關的事物,期待能在聖誕節與坦納見面的妮基竟謊稱家中總是低調過節。然而在阻止不了瘋狂老爸的行徑後,她暗地雇用「假爸媽」迎接坦納和他父親到加州來過聖誕節,殊不知這兩位演員竟是死對頭!即將展開的荒謬鬧劇能否讓妮基順利度過這個平安夜?!
Video
ID : 1
Format : AVC
Format/Info : Advanced Video Codec
Format profile : [email protected]
Format settings : CABAC / 4 Ref Frames
Format settings, CABAC : Yes
Format settings, Reference frames : 4 frames
Codec ID : V_MPEG4/ISO/AVC
Duration : 1 h 39 min
Bit rate : 5 180 kb/s
Width : 1 920 pixels
Height : 1 080 pixels
Display aspect ratio : 16:9
Frame rate mode : Constant
Frame rate : 23.976 FPS
Color space : YUV
Chroma subsampling : 4:2:0
Bit depth : 8 bits
Scan type : Progressive
Bits/(Pixel*Frame) : 0.104
Stream size : 3.62 GiB (93%)
Title : Ill.Be.Next.Door.for.Christmas.2018.1080p.WEB-DL.DD5.1.H264-FGT
Language : English
Default : Yes
Forced : No
Color range : Limited
Color primaries : BT.709
Transfer characteristics : BT.709
Matrix coefficients : BT.709

Audio
ID : 2
Format : AC-3
Format/Info : Audio Coding 3
Commercial name : Dolby Digital
Codec ID : A_AC3
Duration : 1 h 39 min
Bit rate mode : Constant
Bit rate : 384 kb/s
Channel(s) : 6 channels
Channel layout : L R C LFE Ls Rs
Sampling rate : 48.0 kHz
Frame rate : 31.250 FPS (1536 SPF)
Bit depth : 16 bits
Compression mode : Lossy
Stream size : 275 MiB (7%)
Title : Ill.Be.Next.Door.for.Christmas.2018.1080p.WEB-DL.DD5.1.H264-FGT
Language : English
Service kind : Complete Main
Default : Yes
Forced : No

Menu
00:00:00.000 : en:01
00:10:56.114 : en:02
00:20:50.541 : en:03
00:31:07.241 : en:04
00:41:52.010 : en:05
00:49:43.231 : en:06
00:59:57.762 : en:07
01:09:34.629 : en:08
01:20:41.754 : en:09
01:31:15.304 : en:10
01:36:01.297 : en:11





1 个附件 售价 大小 下载 时间

Ill.Be.Next.Door.for.Christmas.2018.1080p.WEB-DL.DD5.1.H264-FGT.torrent 0 金币 78.28K 203 次 5天前

#1楼
发帖时间:2020-01-15 05:47:52   |   回复数:1
911degrees
隐世仙人♂
非常感谢,谢谢分享
5天前 #2楼
游客组