coor
武林高手

[2015] [欧美] [其他] [WEB-1080P] 牙买加黑手党 Jamaican.Mafia.2015.1080p.WEBRip.x264-RARBG 2.79GB

-->

帖子完整标题:牙买加黑手党 Jamaican.Mafia.2015.1080p.WEBRip.x264-RARBG 2.79GB




◎译  名 牙买加黑手党
◎片  名 Jamaican Mafia
◎年  代 2015
◎产  地 美国
◎类  别 犯罪
◎语  言 英语
◎上映日期 2015-11-27(美国)
◎IMDb评分 6.4/10 from 78 users
◎IMDb链接 https://www.imdb.com/title/tt3629834
◎豆瓣评分 0/10 from 0 users
◎豆瓣链接 https://movie.douban.com/subject/26715164/
◎导  演 Vafomba Donzo
◎编  剧 Mykal Fax
◎主  演 David Squeeze Annakie
      John Bling Bennett
      Robert Braxton


◎简  介

  Jamaican Mafia is a gangster-thriller movie in the vein of Goodfellas and Shottas, which follows Zoolian Anderson (Zoo-Zoo), a frustrated Car Salesman who desperately desires riches and respect, and discovers he's the nephew of a powerful crime-boss when he decides to quit the corporate world to join the illicit organization better known as the 'Jamaican Mafia'.
Video
ID : 1
Format : AVC
Format/Info : Advanced Video Codec
Format profile : [email protected]
Format settings : CABAC / 4 Ref Frames
Format settings, CABAC : Yes
Format settings, Reference frames : 4 frames
Codec ID : avc1
Codec ID/Info : Advanced Video Coding
Duration : 2 h 26 min
Bit rate : 2 500 kb/s
Width : 1 920 pixels
Height : 888 pixels
Display aspect ratio : 2.2:1
Frame rate mode : Constant
Frame rate : 29.970 (29970/1000) FPS
Color space : YUV
Chroma subsampling : 4:2:0
Bit depth : 8 bits
Scan type : Progressive
Bits/(Pixel*Frame) : 0.049
Stream size : 2.55 GiB (91%)
Writing library : x264 core 152 r2851M ba24899
Encoding settings : cabac=1 / ref=4 / deblock=1:-1:-1 / analyse=0x3:0x113 / me=umh / subme=9 / psy=1 / psy_rd=1.00:0.15 / mixed_ref=1 / me_range=24 / chroma_me=1 / trellis=2 / 8x8dct=1 / cqm=0 / deadzone=21,11 / fast_pskip=1 / chroma_qp_offset=-3 / threads=16 / lookahead_threads=4 / sliced_threads=0 / nr=0 / decimate=1 / interlaced=0 / bluray_compat=0 / constrained_intra=0 / bframes=3 / b_pyramid=2 / b_adapt=2 / b_bias=0 / direct=3 / weightb=1 / open_gop=0 / weightp=2 / keyint=250 / keyint_min=25 / scenecut=40 / intra_refresh=0 / rc_lookahead=50 / rc=2pass / mbtree=1 / bitrate=2500 / ratetol=1.0 / qcomp=0.60 / qpmin=0 / qpmax=69 / qpstep=4 / cplxblur=20.0 / qblur=0.5 / vbv_maxrate=31250 / vbv_bufsize=31250 / nal_hrd=none / filler=0 / ip_ratio=1.40 / aq=3:1.00
Encoded date : UTC 2019-12-02 15:23:37
Tagged date : UTC 2019-12-02 15:23:37
Codec configuration box : avcC

Audio
ID : 2
Format : AAC LC
Format/Info : Advanced Audio Codec Low Complexity
Codec ID : mp4a-40-2
Duration : 2 h 26 min
Duration_LastFrame : -11 ms
Bit rate mode : Constant
Bit rate : 224 kb/s
Channel(s) : 2 channels
Channel layout : L R
Sampling rate : 48.0 kHz
Frame rate : 46.875 FPS (1024 SPF)
Compression mode : Lossy
Stream size : 234 MiB (8%)
Language : English
Default : Yes
Alternate group : 1
Encoded date : UTC 2019-12-02 15:23:37
Tagged date : UTC 2019-12-02 15:23:37





1 个附件 售价 大小 下载 时间

Jamaican.Mafia.2015.1080p.WEBRip.x264-RARBG.torrent 0 金币 28.52K 308 次 8天前

#1楼
发帖时间:2019-12-03 12:48:44   |   回复数:1
911degrees
隐世仙人♂
非常感谢,谢谢分享
8天前 #2楼
游客组