coor
武林高手

[2019] [欧美] [喜剧] [WEB-1080P] 后知后觉 Before.You.Know.It.2019.1080p.WEBRip.x264-RARBG 1.89GB

-->

帖子完整标题:后知后觉 Before.You.Know.It.2019.1080p.WEBRip.x264-RARBG 1.89GB




◎译  名 后知后觉 / Stupid Happy / 愚蠢的快乐
◎片  名 Before You Know It
◎年  代 2019
◎产  地 美国
◎类  别 喜剧
◎语  言 英语
◎上映日期 2019-01-24(美国)
◎IMDb评分 5.1/10 from 169 users
◎IMDb链接 https://www.imdb.com/title/tt8856090
◎豆瓣评分 0/10 from 0 users
◎豆瓣链接 https://movie.douban.com/subject/30302169/
◎片  长 98分钟
◎导  演 汉娜·珀尔·厄特 Hannah Pearl Utt
◎编  剧 詹·塔洛克 Jen Tullock / 汉娜·珀尔·厄特 Hannah Pearl Utt
◎主  演 曼迪·帕廷金 Mandy Patinkin
      亚历克·鲍德温 Alec Baldwin
      蒂姆·达利 Tim Daly
      朱迪斯·赖特 Judith Light
      麦克·柯尔特 Mike Colter
      萨姆·戴利 Sam Daly
      彼得·雅各布森 Peter Jacobson
      艾登·梅耶里 Ayden Mayeri
      Jenn Lyon
      Carly Brooke
      Blake Berris
      汉娜·珀尔·厄特 Hannah Pearl Utt
      詹·塔洛克 Jen Tullock


◎标  签 喜剧 | 美国 | 2019 | 美國 | 文艺 | 家庭 | HannahPearlUtt | 影

◎简  介

  亚历克·鲍德温、朱迪斯·赖特、曼迪·帕廷金、麦克·柯尔特(《傲骨贤妻》)主演影片[愚蠢的快乐](Stupid Happy,暂译)。汉娜·珀尔·厄特([英格丽向西行])执导,厄特与詹·塔洛克([六个气球])共同操刀剧本。故事讲述在担任编剧的父亲去世后,姐妹俩发现她们认为在她们年轻时死去的母亲,依旧活着并主演了肥皂剧。影片目前在纽约拍摄中。

◎获奖情况

  第35届圣丹斯电影节(2019)
  评审团大奖 剧情片(提名) 汉娜·珀尔·厄特
Video
ID : 1
Format : AVC
Format/Info : Advanced Video Codec
Format profile : [email protected]
Format settings : CABAC / 4 Ref Frames
Format settings, CABAC : Yes
Format settings, Reference frames : 4 frames
Codec ID : avc1
Codec ID/Info : Advanced Video Coding
Duration : 1 h 39 min
Bit rate : 2 500 kb/s
Width : 1 920 pixels
Height : 1 038 pixels
Display aspect ratio : 1.85:1
Frame rate mode : Constant
Frame rate : 23.976 (23976/1000) FPS
Color space : YUV
Chroma subsampling : 4:2:0
Bit depth : 8 bits
Scan type : Progressive
Bits/(Pixel*Frame) : 0.052
Stream size : 1.73 GiB (92%)
Writing library : x264 core 152 r2851M ba24899
Encoding settings : cabac=1 / ref=4 / deblock=1:-1:-1 / analyse=0x3:0x113 / me=umh / subme=9 / psy=1 / psy_rd=1.00:0.15 / mixed_ref=1 / me_range=24 / chroma_me=1 / trellis=2 / 8x8dct=1 / cqm=0 / deadzone=21,11 / fast_pskip=1 / chroma_qp_offset=-3 / threads=32 / lookahead_threads=4 / sliced_threads=0 / nr=0 / decimate=1 / interlaced=0 / bluray_compat=0 / constrained_intra=0 / bframes=3 / b_pyramid=2 / b_adapt=2 / b_bias=0 / direct=3 / weightb=1 / open_gop=0 / weightp=2 / keyint=250 / keyint_min=25 / scenecut=40 / intra_refresh=0 / rc_lookahead=50 / rc=2pass / mbtree=1 / bitrate=2500 / ratetol=1.0 / qcomp=0.60 / qpmin=0 / qpmax=69 / qpstep=4 / cplxblur=20.0 / qblur=0.5 / vbv_maxrate=31250 / vbv_bufsize=31250 / nal_hrd=none / filler=0 / ip_ratio=1.40 / aq=3:1.00
Encoded date : UTC 2019-12-02 16:32:04
Tagged date : UTC 2019-12-02 16:32:04
Codec configuration box : avcC

Audio
ID : 2
Format : AAC LC
Format/Info : Advanced Audio Codec Low Complexity
Codec ID : mp4a-40-2
Duration : 1 h 39 min
Bit rate mode : Constant
Bit rate : 224 kb/s
Channel(s) : 6 channels
Channel layout : C L R Ls Rs LFE
Sampling rate : 48.0 kHz
Frame rate : 46.875 FPS (1024 SPF)
Compression mode : Lossy
Stream size : 159 MiB (8%)
Language : English
Default : Yes
Alternate group : 1
Encoded date : UTC 2019-12-02 16:32:04
Tagged date : UTC 2019-12-02 16:32:04





1 个附件 售价 大小 下载 时间

Before.You.Know.It.2019.1080p.WEBRip.x264-RARBG.torrent 0 金币 19.51K 245 次 8天前

#1楼
发帖时间:2019-12-03 12:46:56   |   回复数:2
linyihuangwei
武林盟主
谢谢分享
8天前 #2楼
911degrees
隐世仙人♂
非常感谢,谢谢分享
8天前 #3楼
游客组