coor
武林高手

[2018] [欧美] [WEB-720P] 爱登堡爵士和海龙/史前海怪 Attenborough.And.The.Sea.Dragon.2018.720p.AMZN.WEBRip.DDP2.0.x264-

-->

帖子完整标题:爱登堡爵士和海龙/史前海怪 Attenborough.And.The.Sea.Dragon.2018.720p.AMZN.WEBRip.DDP2.0.x264-NTb 1.79GB




◎译  名 爱登堡爵士和海龙 / 史前海怪
◎片  名 Attenborough and the Sea Dragon
◎年  代 2018
◎产  地 英国
◎语  言 英语
◎上映日期 2018-01-07(英国)
◎IMDb评分 7.3/10 from 214 users
◎IMDb链接 https://www.imdb.com/title/tt7764186
◎豆瓣评分 8.2/10 from 66 users
◎豆瓣链接 https://movie.douban.com/subject/27663801/
◎导  演 迈克尔·冈顿 Michael Gunton
◎编  剧 Sally Thomson
◎主  演 戴维·阿滕伯勒 David Attenborough


◎标  签 纪录片 | BBC | 化石 | 鱼龙 | 英国 | 古生物 | 自然 | 迈克尔·冈顿

◎简  介

  A remarkable 200-million-year-old fossil - the bones of an ichthyosaur, a giant sea dragon - has been discovered on the Jurassic coast of Britain. David Attenborough joins the hunt to bring this ancient creature's story to life. Using state-of-the-art imaging technology and CGI, the team reconstruct the skeleton and create the most detailed animation of an ichthyosaur ever made. Along the way, the team stumble into a 200-million-year-old murder mystery - and only painstaking forensic investigation can unravel the story of this extraordinary creature's fate.
Video
ID : 1
Format : AVC
Format/Info : Advanced Video Codec
Format profile : [email protected]
Format settings : CABAC / 4 Ref Frames
Format settings, CABAC : Yes
Format settings, Reference frames : 4 frames
Codec ID : V_MPEG4/ISO/AVC
Duration : 53 min 4 s
Bit rate mode : Constant
Bit rate : 4 595 kb/s
Nominal bit rate : 6 000 kb/s
Width : 1 280 pixels
Height : 720 pixels
Display aspect ratio : 16:9
Frame rate mode : Constant
Frame rate : 25.000 FPS
Color space : YUV
Chroma subsampling : 4:2:0
Bit depth : 8 bits
Scan type : Progressive
Bits/(Pixel*Frame) : 0.199
Stream size : 1.70 GiB (95%)
Default : Yes
Forced : No
Color range : Limited
Color primaries : BT.709
Transfer characteristics : BT.709
Matrix coefficients : BT.709

Audio
ID : 2
Format : E-AC-3
Format/Info : Enhanced AC-3
Commercial name : Dolby Digital Plus
Codec ID : A_EAC3
Duration : 53 min 4 s
Bit rate mode : Constant
Bit rate : 224 kb/s
Channel(s) : 2 channels
Channel layout : L R
Sampling rate : 48.0 kHz
Frame rate : 31.250 FPS (1536 SPF)
Compression mode : Lossy
Stream size : 85.0 MiB (5%)
Language : English
Service kind : Complete Main
Default : Yes
Forced : No

Text
ID : 3
Format : UTF-8
Codec ID : S_TEXT/UTF8
Codec ID/Info : UTF-8 Plain Text
Duration : 52 min 56 s
Bit rate : 89 b/s
Count of elements : 969
Stream size : 34.8 KiB (0%)
Title : SDH
Language : English
Default : No
Forced : No





1 个附件 售价 大小 下载 时间

Attenborough.And.The.Sea.Dragon.2018.720p.AMZN.WEBRip.DDP2.0.x264-NTb.torrent 0 金币 18.42K 315 次 8天前

#1楼
发帖时间:2019-12-03 12:34:27   |   回复数:2
blj2007
一派掌门
感谢分享,辛苦啦
8天前 #2楼
911degrees
隐世仙人♂
非常感谢,谢谢分享
8天前 #3楼
游客组