coor
武林高手

[2012] [欧美] [剧情] [WEB-1080P] 替罪羊/代罪羔羊 The.Scapegoat.2012.1080p.AMZN.WEBRip.DDP2.0.x264-QOQ 3.44GB

-->

帖子完整标题:替罪羊/代罪羔羊 The.Scapegoat.2012.1080p.AMZN.WEBRip.DDP2.0.x264-QOQ 3.44GB




◎译  名 替罪羊 / 代罪羔羊
◎片  名 The Scapegoat
◎年  代 2012
◎产  地 英国
◎类  别 剧情
◎语  言 英语
◎上映日期 2012-09-09
◎IMDb评分 7.1/10 from 3772 users
◎IMDb链接 https://www.imdb.com/title/tt2084977
◎豆瓣评分 7.4/10 from 2041 users
◎豆瓣链接 https://movie.douban.com/subject/6962981/
◎片  长 103分钟
◎导  演 Charles Sturridge
◎编  剧 Daphne Du Maurier / Charles Sturridge
◎主  演 马修·瑞斯 Matthew Rhys
      艾琳·阿特金斯 Eileen Atkins
      安德鲁·斯科特 Andrew Scott
      乔迪·梅 Jodhi May
      Sheridan Smith


◎标  签 英国 | 剧情 | 英剧 | 英国电影 | 悬疑 | AndrewScott | 2012 | MatthewRhys

◎简  介

  强尼(马修·瑞斯 Matthew Rhys 饰)是富家公子,约翰(马修·瑞斯 Matthew Rhys 饰)则是一个刚刚事业的教书匠,某日,身份和地位悬殊的两人于一间酒吧中相遇,令他们感到震惊的是,他们的相貌竟然一模一样。
  强尼热情的请约翰喝酒,约翰不胜酒力不省人事,当他醒来时,发现自己躺在豪华旅馆的床榻上,而强尼和自己的行李一起不知所踪。就这样,约翰代替强尼成为了大庄园的主人,亦见识到了贵族们埋藏在纸醉金迷华丽表象之下贪婪堕落的生活。善良天真的约翰决定善待周围的每一个人,从自己做起,逐渐改变整个庄园,仅仅凭借他微薄的力量,约翰最终能够成功吗?
Video
ID : 1
Format : AVC
Format/Info : Advanced Video Codec
Format profile : [email protected]
Format settings : CABAC / 4 Ref Frames
Format settings, CABAC : Yes
Format settings, Reference frames : 4 frames
Codec ID : V_MPEG4/ISO/AVC
Duration : 1 h 47 min
Bit rate mode : Variable
Bit rate : 4 350 kb/s
Maximum bit rate : 15.0 Mb/s
Width : 1 920 pixels
Height : 816 pixels
Display aspect ratio : 2.35:1
Frame rate mode : Constant
Frame rate : 23.976 (24000/1001) FPS
Color space : YUV
Chroma subsampling : 4:2:0
Bit depth : 8 bits
Scan type : Progressive
Bits/(Pixel*Frame) : 0.116
Stream size : 3.27 GiB (95%)
Writing library : x264 core 148 r2623 d5b2374
Encoding settings : cabac=1 / ref=4 / deblock=1:-1:-1 / analyse=0x3:0x133 / me=umh / subme=9 / psy=1 / psy_rd=1.00:0.15 / mixed_ref=1 / me_range=24 / chroma_me=1 / trellis=2 / 8x8dct=1 / cqm=0 / deadzone=21,11 / fast_pskip=1 / chroma_qp_offset=-3 / threads=25 / lookahead_threads=4 / sliced_threads=0 / nr=150 / decimate=1 / interlaced=0 / bluray_compat=0 / constrained_intra=0 / bframes=8 / b_pyramid=2 / b_adapt=2 / b_bias=0 / direct=3 / weightb=1 / open_gop=0 / weightp=2 / keyint=120 / keyint_min=61 / scenecut=0 / intra_refresh=0 / rc_lookahead=120 / rc=crf / mbtree=1 / crf=18.0 / qcomp=0.60 / qpmin=0 / qpmax=69 / qpstep=4 / vbv_maxrate=15000 / vbv_bufsize=31250 / crf_max=0.0 / nal_hrd=vbr / filler=0 / ip_ratio=1.40 / aq=3:1.00
Default : Yes
Forced : No
Color range : Limited
Color primaries : BT.709
Transfer characteristics : BT.709
Matrix coefficients : BT.709

Audio
ID : 2
Format : E-AC-3
Format/Info : Enhanced AC-3
Commercial name : Dolby Digital Plus
Codec ID : A_EAC3
Duration : 1 h 47 min
Bit rate mode : Constant
Bit rate : 224 kb/s
Channel(s) : 2 channels
Channel layout : L R
Sampling rate : 48.0 kHz
Frame rate : 31.250 FPS (1536 SPF)
Compression mode : Lossy
Stream size : 172 MiB (5%)
Language : English
Service kind : Complete Main
Default : Yes
Forced : No

Text #1
ID : 3
Format : UTF-8
Codec ID : S_TEXT/UTF8
Codec ID/Info : UTF-8 Plain Text
Duration : 1 h 41 min
Bit rate : 60 b/s
Count of elements : 1653
Stream size : 44.9 KiB (0%)
Language : English
Default : No
Forced : No

Text #2
ID : 4
Format : UTF-8
Codec ID : S_TEXT/UTF8
Codec ID/Info : UTF-8 Plain Text
Duration : 1 h 42 min
Bit rate : 60 b/s
Count of elements : 1667
Stream size : 45.4 KiB (0%)
Title : SDH
Language : English
Default : No
Forced : No





1 个附件 售价 大小 下载 时间

The.Scapegoat.2012.1080p.AMZN.WEBRip.DDP2.0.x264-QOQ.torrent 0 金币 34.90K 357 次 9天前

#1楼
发帖时间:2019-12-03 12:16:57   |   回复数:1
911degrees
隐世仙人♂
非常感谢,谢谢分享
8天前 #2楼
游客组