coor
武林高手

[更 早] [其他] [动作] [BD-1080P] 怪兽王哥斯拉 Godzilla.King.of.the.Monsters.1956.Criterion.1080p.BluRay.x264-JRP 7.66GB

-->

帖子完整标题:怪兽王哥斯拉 Godzilla.King.of.the.Monsters.1956.Criterion.1080p.BluRay.x264-JRP 7.66GB




◎译  名 怪兽王哥斯拉
◎片  名 Godzilla, King of the Monsters!
◎年  代 1956
◎产  地 美国 / 日本
◎类  别 动作 / 科幻 / 恐怖
◎语  言 英语 / 日语
◎上映日期 1956-04-27
◎IMDb评分 6.6/10 from 6263 users
◎IMDb链接 http://www.imdb.com/title/tt0197521
◎豆瓣评分 5.8/10 from 246 users
◎豆瓣链接 https://movie.douban.com/subject/1294095/
◎片  长 80 分钟(original U.S. theatrical release version)
◎导  演 本多猪四郎 Ishir? Honda / Terry O. Morse
◎编  剧 Al C. Ward / 本多猪四郎 Ishir? Honda / 香山滋 Shigeru Kayama
◎主  演 雷蒙德·布尔 Raymond Burr
      志村乔 Takashi Shimura
      宝田明 Akira Takarada
      平田昭彦 Akihiko Hirata
      小川虎之助 Toranosuke Ogawa
      Toyoaki Suzuki


◎标  签 日本 | 科幻 | 哥斯拉 | 本多猪四郎 | 美国 | 日本电影 | 1950s | 美国电影

◎简  介

  来自美国《世界新闻》报社的记者斯蒂芬·马丁(雷蒙德·波尔 Raymond Burr 饰)乘飞机前往开罗,在东京转机期间却遭遇令他永生难忘的事情。日本方面一艘打捞船突然与陆地失去联系,前往救援的船只也不幸遇难。从幸存者的口中世人得知,这些遇难船遭到了恐怖的怪物哥斯拉的袭击。著名古生物学家山根京平博士对遭遇袭击的大户岛进行勘查,证实哥斯拉实为两百万年前侏罗纪时代存活下来的恐龙,由于受到原子弹的辐射和氢弹试验的影响而发生突变,并重现人间。人类面临空前的灾难,斯蒂芬成为了这场灾难的见证者……
本片根据香山滋的科幻小说改编,该版本为美国重新剪辑并在国内公映的版本。

Video
ID : 1
Format : AVC
Format/Info : Advanced Video Codec
Format profile : [email protected]
Format settings : CABAC / 4 Ref Frames
Format settings, CABAC : Yes
Format settings, Reference frames : 4 frames
Codec ID : V_MPEG4/ISO/AVC
Duration : 1 h 21 min
Bit rate : 13.0 Mb/s
Width : 1 488 pixels
Height : 1 080 pixels
Display aspect ratio : 1.378
Frame rate mode : Constant
Frame rate : 23.976 FPS
Color space : YUV
Chroma subsampling : 4:2:0
Bit depth : 8 bits
Scan type : Progressive
Bits/(Pixel*Frame) : 0.338
Stream size : 7.37 GiB (96%)
Writing library : x264 core 158 r2984 3759fcb
Encoding settings : cabac=1 / ref=4 / deblock=1:0:0 / analyse=0x3:0x133 / me=umh / subme=7 / psy=1 / psy_rd=1.00:0.00 / mixed_ref=1 / me_range=16 / chroma_me=1 / trellis=2 / 8x8dct=1 / cqm=0 / deadzone=21,11 / fast_pskip=0 / chroma_qp_offset=-2 / threads=12 / lookahead_threads=2 / sliced_threads=0 / nr=0 / decimate=1 / interlaced=0 / bluray_compat=0 / constrained_intra=0 / bframes=3 / b_pyramid=2 / b_adapt=1 / b_bias=0 / direct=3 / weightb=1 / open_gop=0 / weightp=2 / keyint=250 / keyint_min=23 / scenecut=40 / intra_refresh=0 / rc_lookahead=50 / rc=2pass / mbtree=1 / bitrate=13016 / ratetol=1.0 / qcomp=0.60 / qpmin=0 / qpmax=69 / qpstep=4 / cplxblur=20.0 / qblur=0.5 / ip_ratio=1.40 / aq=1:1.00
Language : Japanese
Default : Yes
Forced : No

Audio
ID : 2
Format : FLAC
Format/Info : Free Lossless Audio Codec
Codec ID : A_FLAC
Duration : 1 h 21 min
Bit rate mode : Variable
Bit rate : 511 kb/s
Channel(s) : 1 channel
Channel layout : C
Sampling rate : 48.0 kHz
Frame rate : 11.719 FPS (4096 SPF)
Bit depth : 24 bits
Compression mode : Lossless
Stream size : 296 MiB (4%)
Writing library : libFLAC 1.3.2 (UTC 2017-01-01)
Language : Japanese
Default : Yes
Forced : No

Text
ID : 3
Format : UTF-8
Codec ID : S_TEXT/UTF8
Codec ID/Info : UTF-8 Plain Text
Duration : 1 h 20 min
Bit rate : 42 b/s
Count of elements : 665
Stream size : 24.7 KiB (0%)
Language : English
Default : Yes
Forced : No

Menu
00:00:00.000 : en:Chapter 01
00:05:12.770 : en:Chapter 02
00:06:40.316 : en:Chapter 03
00:09:25.523 : en:Chapter 04
00:11:53.003 : en:Chapter 05
00:14:04.218 : en:Chapter 06
00:18:20.474 : en:Chapter 07
00:21:28.829 : en:Chapter 08
00:25:18.558 : en:Chapter 09
00:30:07.013 : en:Chapter 10
00:32:08.468 : en:Chapter 11
00:33:57.660 : en:Chapter 12
00:37:40.925 : en:Chapter 13
00:41:21.145 : en:Chapter 14
00:45:42.030 : en:Chapter 15
00:48:28.196 : en:Chapter 16
00:53:57.859 : en:Chapter 17
00:59:10.004 : en:Chapter 18
01:01:24.764 : en:Chapter 19
01:04:58.561 : en:Chapter 20
01:11:07.638 : en:Chapter 21





1 个附件 售价 大小 下载 时间

Godzilla.King.of.the.Monsters.1956.Criterion.1080p.BluRay.x264-JRP.torrent 0 金币 39.22K 336 次 9天前

#1楼
发帖时间:2019-12-02 22:58:37   |   回复数:5
liyouchai
隐世仙人♂
谢谢楼主分享资源
9天前 #2楼
911degrees
隐世仙人♂
非常感谢,谢谢分享
9天前 #3楼
yangbo83222179
一代宗师
谢谢楼主分享
9天前 #4楼
kola13
一派掌门
感谢分享
8天前 #5楼
jokingcheung
一代宗师
谢谢分享
8天前 #6楼
游客组